imdb
rating

6.6
Anna Karenina

Anna Karenina (2012)

Drama, Romance

Full description

Anna Karenina 2012 DVDRip XviD-EXViD

Size 722.559 MB   0 seeders     Added 2012-11-14 08:09:15

Stream torrent
Starting‥ You need BitLord! Get it from 1BitLord.com
To download or stream you need BitLord. Visit them at BitLord.com
\r\n\r\nID                               : 0\r\nFormat                           : MPEG-4 Visual\r\nFormat profile                   : Advanced Simple@L5\r\nFormat settings, BVOP            : 2\r\nFormat settings, QPel            : No\r\nFormat settings, GMC             : No warppoints\r\nFormat settings, Matrix          : Default (H.263)\r\nCodec ID                         : XVID\r\nCodec ID/Hint                    : XviD\r\nDuration                         : 1h 34mn\r\nBit rate                         : 2 293 Kbps\r\nWidth                            : 720 pixels\r\nHeight                           : 304 pixels\r\nDisplay aspect ratio             : 2.35:1\r\nFrame rate                       : 23.976 fps\r\nColor space                      : YUV\r\nChroma subsampling               : 4:2:0\r\nBit depth                        : 8 bits\r\nScan type                        : Progressive\r\nCompression mode                 : Lossy\r\nBits/(Pixel*Frame)               : 0.437\r\nStream size                      : 0.567 GiB (83%)\r\nWriting library                  : XviD 1.2.1 (UTC 2008-12-04)\r\n\r\n[color=red]Audio[/color]\r\n\r\nID                               : 1\r\nFormat                           : AC-3\r\nFormat/Info                      : Audio Coding 3\r\nMode extension                   : CM (complete main)\r\nCodec ID                         : 2000\r\nDuration                         : 1h 34mn\r\nBit rate mode                    : Constant\r\nBit rate                         : 448 Kbps\r\nChannel(s)                       : 6 channels\r\nChannel positions                : Front: L C R, Side: L R, LFE\r\nSampling rate                    : 48.0 KHz\r\nBit depth                        : 16 bits\r\nCompression mode                 : Lossy\r\nStream size                      : 202 MiB (16%)\r\nAlignment                        : Aligned on interleaves\r\nInterleave, duration             : 64 ms (1.53 video frames)\r\nInterleave, preload duration     : 192 ms\r\n\r\n\r\n\r\n\r\n\r\n\r\n\r\n\r\n\r\n
Anna Karenina.2012.DVDRip.XviD-EXViD/Anna Karenina.wmv 722.549 MB
Anna Karenina.2012.DVDRip.XviD-EXViD/Info.nfo 5.215 KB
Anna Karenina.2012.DVDRip.XviD-EXViD/READ this before playing the Video.txt 5.215 KB
Gathering some info...

Register and log in Isohunt and see no captcha anymore!

4000 symbols left
Hash ec6d18469b4a4f046979ec7a3484b05294452ea8

Related torrents for "Anna Karenina 2012 DVDRip XviD-EXViD"

Torrent search:

dvdrip 2012