imdb
rating

7.1
Brothers

Brothers (2009)

Drama, Thriller, War

Full description
quality   dvdrip h264 bd x264 hd

Koch.Brothers.DSR.STV.XviD-kralcx

Size 727.032 MB   0 seeders     Added 2012-11-14 14:23:48

Stream torrent
Starting‥ You need BitLord! Get it from BitLord.com
To download or stream you need BitLord. Visit them at BitLord.com
Koch Brothers Exposed 2012 DSR STV XviD-kralcx




Koch Brothers Exposed (2012)
Genre: Documentary
Directed By: Robert Greenwald
Cast: Charles G. Koch, David H. Koch, Fred C. Koch
Country: USA
Original Language: English
Storyline: An expose on the billionaire brothers Charles and David Koch, who helped finance the conservative political advocacy group Americans for Prosperity.

IMDB Rate: 7.2 / 10
IMDB: http://www.imdb.com/title/tt2347411/
| M O V I E information | Title................................: Koch Brothers Exposed
International title(s)...............: N/A
Director.............................: Robert Greenwald
Release year.........................: 2012
Language.............................: English
Runtime..............................: 1hr
Genre................................: Documentary
Color................................: Yes
IMDb rating..........................: N/A
Link 1...............................: http://www.imdb.com/title/tt2347411/
Link 2...............................: http://www.amazon.com/Koch-Brothers-Exposed-Robert-Greenwald/dp/B007K7IC92/ref=sr_1_1?s=movies-tv&ie=UTF8&qid=1338910305&sr=1-1
Studio...............................: Disinformation
Subtitles............................: No

Source (DVD/DVDR 5,9)..................: Apple
Total movie's files size...............: 693MB
| Video Attribute | Video compression mode...............: N/A
TV system (NTSC/PAL).................: N/A
Aspect ratio.........................: N/A
Source picture resolution............: N/A
Frame rate...........................: N/A
Subpicture attributes Number of subtitles..................: N/A
Subtitle language/s..................: N/A
| Audio Attribute | Audio coding mode....................: N/A
Sampling rate........................: N/A
Number of audio channels.............: N/A
Bitrate..............................: N/A
Number of audio streams..............: N/A
Audio stream language/s..............: N/A
| RIP Information | Video (Untouched/Re-encoded-%).......: N/A
Audio (Untouched/Stripped)...........: N/A
Menus (Untouched/Stripped)...........: N/A
Extras (Untouched/Stripped/N/A)......: N/A
Subtitles (Untouched/Stripped/Added).: N/A
| Post Information | Posted by............................: N/A
Compression method (RAR/ZIP).........: N/A
File validation......................: N/A
Part size............................: N/A
Name of the part files...............: N/A
Number of files......................: N/A
Total files size.....................: N/A
Burn tested..........................: N/A
Date of post (d.m.y).................: 5.6.2012
Posted to............................: N/A
Re-posting policy....................: N/A
| Plot summary | A hard-hitting and revealing investigation of the 1% in America at its very worst. Koch Brothers Exposed is the latest film from Acclaimed Director Robert Greenwald (Wal-Mart: The High Cost of Low Price, Outfoxed, Iraq For Sale). From environmental pollution to their efforts to dismantle social security for working Americans, the Koch Brothers have launched a large network, attacking our American values.
| Release note | General
Format : AVI
Format/Info : Audio Video Interleave
File size : 693 MiB
Duration : 1h 0mn
Overall bit rate : 1 593 Kbps

Video
ID : 0
Format : MPEG-4 Visual
Format profile : Simple@L3
Format settings, BVOP : No
Format settings, QPel : No
Format settings, GMC : No warppoints
Format settings, Matrix : Default (H.263)
Codec ID : XVID
Codec ID/Hint : XviD
Duration : 1h 0mn
Bit rate : 1 419 Kbps
Width : 640 pixels
Height : 352 pixels
Display aspect ratio : 16:9
Frame rate : 30.000 fps
Color space : YUV
Chroma subsampling : 4:2:0
Bit depth : 8 bits
Scan type : Progressive
Compression mode : Lossy
Bits/(Pixel*Frame) : 0.210
Stream size : 618 MiB (89%)
Writing library : XviD 1.1.2 (UTC 2006-11-01)

Audio
ID : 1
Format : MPEG Audio
Format version : Version 1
Format profile : Layer 3
Mode : Joint stereo
Codec ID : 55
Codec ID/Hint : MP3
Duration : 1h 0mn
Bit rate mode : Constant
Bit rate : 160 Kbps
Channel(s) : 2 channels
Sampling rate : 48.0 KHz
Compression mode : Lossy
Stream size : 69.6 MiB (10%)
Alignment : Split accross interleaves
Interleave, duration : 24 ms (0.72 video frame)







| Ripper note | This was made using Handbrake.

I'm a solo act and this is a Kralcx Production

Hope you Enjoy!!
Koch.Brothers.DSR.STV.XviD-kralcx.avi 727.032 MB
Gathering some info...

Register and log in Isohunt and see no captcha anymore!

4000 symbols left
Hash CD8305D137590811C55553D973BB6DE41DFCBBCA

Related torrents for "Koch.Brothers.DSR.STV.XviD-kralcx"

Torrent search:

hdtv