imdb
rating

7.8
Skyfall

Skyfall (2012)

Action, Adventure, Thriller

Full description

Skyfall 2012 TS Rip English [SOURAVFILE]

Size 735.457 MB   7 seeders     Added 2012-11-14 15:00:31

Stream torrent
Starting‥ You need BitLord! Get it from 1BitLord.com
To download or stream you need BitLord. Visit them at BitLord.com
[img]image[/img]

[b]Cover:[/b]

[img]image?84cd58[/img]

[b]Release Info:[/b]

[code]General

Format : Matroska
Format version : Version 2
File size : 701 MiB
Duration : 2h 17mn
Overall bit rate : 714 Kbps

Video
ID : 1
Format : MPEG-4 Visual
Format profile : Advanced Simple@L5
Format settings, BVOP : Yes
Format settings, QPel : No
Format settings, GMC : No warppoints
Format settings, Matrix : Default (H.263)
Codec ID : V_MS/VFW/FOURCC / XVID
Codec ID/Hint : XviD
Duration : 2h 17mn
Bit rate : 572 Kbps
Width : 624 pixels
Height : 256 pixels
Display aspect ratio : 2.40:1
Frame rate mode : Constant
Frame rate : 25.000 fps
Color space : YUV
Chroma subsampling : 4:2:0
Bit depth : 8 bits
Scan type : Progressive
Compression mode : Lossy
Bits/(Pixel*Frame) : 0.143
Stream size : 562 MiB (80%)
Writing library : XviD 64
Language : English
Default : Yes
Forced : No

Audio
ID : 2
Format : MPEG Audio
Format version : Version 1
Format profile : Layer 3
Mode : Joint stereo
Mode extension : MS Stereo
Muxing mode : Header stripping
Codec ID : A_MPEG/L3
Codec ID/Hint : MP3
Duration : 2h 17mn
Bit rate mode : Constant
Bit rate : 128 Kbps
Channel(s) : 2 channels
Sampling rate : 44.1 KHz
Compression mode : Lossy
Stream size : 126 MiB (18%)
Language : English
Default : Yes
Forced : No

Source:
credit to original movie ripper HELLRAZ0R (Thanks)
[/code]

[b]IMDB Info:[/b]

[code]Bond's loyalty to M is tested as her past comes back to haunt her. As MI6 comes under attack, 007 must track down and destroy the threat, no matter how personal the cost.

Director: Sam Mendes
Writers: Neal Purvis, Robert Wade,
Stars: Daniel Craig, Javier Bardem and Naomie Harris

Genres: Action | Adventure | Crime | Thriller
 
http://www.imdb.com/title/tt1074638/[/code]

[b]Screen Shot:[/b]

[img]image[/img]
[img]image[/img]
[img]image[/img]
[img]image[/img][img]image[/img]
[img]image[/img]
[img]image[/img]
[img]image[/img]
Skyfall 2012 TS Rip English [SOURAVFILE].mkv 735.456 MB
Torrent Downloaded From Digtorrent.org.txt 346 B
Torrent downloaded from souravfile torrents on BTScene.eu.txt 69 B
Gathering some info...

Register and log in Isohunt and see no captcha anymore!

4000 symbols left
Hash F9648838ACDE720114D769CF3D0B991AF1587020

Related torrents for "Skyfall 2012 TS Rip English [SOURAVFILE]"

Torrent search:

english telesync 2012