Ata Pata Laapata - 2012'(Audio Cleaned) - SCam Rip - MPEG-PS.mpg

Size 711.473 MB   0 seeders     Added 2012-11-14 21:20:34

Stream torrent
Starting‥ You need BitLord! Get it from BitLord.com
To download or stream you need BitLord. Visit them at BitLord.com
[CENTER][SIZE="5"][COLOR="Magenta"]'Ata Pata Laapata - 2012'(Audio Cleaned) - SCam Rip - MPEG-PS [/COLOR][/SIZE]

[IMG]image[/IMG]
[IMG]image[/IMG]
[IMG]image[/IMG]

[IMG]image[/IMG]
General
 Format : MPEG-PS
 File size : 679 MiB
 Duration : 1h 57mn
 Overall bit rate mode : Variable
 Overall bit rate : 809 Kbps
 
 Video #224
 ID : 224 (0xE0)
 Format : MPEG Video
 Format version : Version 1
 Format settings, BVOP : Yes
 Format settings, Matrix : Custom
 Duration : 1h 57mn
 Bit rate mode : Variable
 Bit rate : 733 Kbps
 Width : 352 pixels
 Height : 288 pixels
 Display aspect ratio : 4:3
 Frame rate : 25.000 fps
 Standard : PAL
 Color space : YUV
 Bit depth : 8 bits
 Scan type : Progressive
 Compression mode : Lossy
 Bits/(Pixel*Frame) : 0.289
 Stream size : 611 MiB (90%)
[IMG]image[/IMG]
Audio #192
 ID : 192 (0xC0)
 Format : MPEG Audio
 Format version : Version 1
 Format profile : Layer 2
 Duration : 1h 57mn
 Bit rate mode : Constant
 Bit rate : 64.0 Kbps
 Channel(s) : 2 channels
 Sampling rate : 48.0 KHz
 Compression mode : Lossy
 Stream size : 53.7 MiB (8%)

[SIZE="6"][COLOR="SeaGreen"]Thumbnails[/COLOR][/SIZE]
 [IMG]image[/IMG]

[URL=http://www.facebook.com/pages/Hunter/172061499591085][img]image[/img][/url]


[/CENTER]
Ata Pata Laapata - 2012'(Audio Cleaned) - SCam Rip - MPEG-PS.mpg 711.473 MB
Gathering some info...

Register and log in Isohunt and see no captcha anymore!

4000 symbols left
Hash 9F7397F6055F89D740D56D0E98542542D0E5215B