imdb
rating

7.3
Vegas

Vegas (2012)

Drama

Full description

Vegas S01E06 1080p WEB-DL DD5 1 H 264-KiNGS

Size 1.64 GB   0 seeders     Added 2012-11-14 22:40:13

Stream torrent
Starting‥ You need BitLord! Get it from BitLord.com
To download or stream you need BitLord. Visit them at BitLord.com
- 
http://www.Speed.Cd
 
http://www.Speed.Cd       the fast  and The Hottest Private Tracker on the net

Please Seed back to make the speed Faster!!
 ............ NFO .............
-General
Unique ID                                : 177830975192042860428364242989290932335 (0x85C900010FB04813A81556758B4CC86F)
Complete name                            : D:iTunesTV ShowsVegasVegas.S01E06.1080p.WEB-DL.DD5.1.H.264-KiNGSVegas.S01E06.1080p.WEB-DL.DD5.1.H.264-KiNGS.mkv
Format                                   : Matroska
Format version                           : Version 2
File size                                : 1.53 GiB
Duration                                 : 40mn 40s
Overall bit rate                         : 5 376 Kbps
Encoded date                             : UTC 2012-11-14 10:16:39
Writing application                      : mkvmerge v5.8.0 ('No Sleep / Pillow') built on Sep  2 2012 15:37:04
Writing library                          : libebml v1.2.3 + libmatroska v1.3.0

Video
ID                                       : 1
Format                                   : AVC
Format/Info                              : Advanced Video Codec
Format profile                           : High@L4.0
Format settings, CABAC                   : Yes
Format settings, ReFrames                : 4 frames
Codec ID                                 : V_MPEG4/ISO/AVC
Duration                                 : 40mn 40s
Bit rate                                 : 4 885 Kbps
Width                                    : 1 920 pixels
Height                                   : 1 080 pixels
Display aspect ratio                     : 16:9
Frame rate mode                          : Constant
Frame rate                               : 23.976 fps
Color space                              : YUV
Chroma subsampling                       : 4:2:0
Bit depth                                : 8 bits
Scan type                                : Progressive
Bits/(Pixel*Frame)                       : 0.098
Stream size                              : 1.39 GiB (91%)
Language                                 : English
Default                                  : Yes
Forced                                   : No
Color primaries                          : BT.709
Transfer characteristics                 : BT.709
Matrix coefficients                      : BT.709

Audio
ID                                       : 2
Format                                   : AC-3
Format/Info                              : Audio Coding 3
Mode extension                           : CM (complete main)
Format settings, Endianness              : Big
Codec ID                                 : A_AC3
Duration                                 : 40mn 40s
Bit rate mode                            : Constant
Bit rate                                 : 384 Kbps
Channel(s)                               : 6 channels
Channel positions                        : Front: L C R, Side: L R, LFE
Sampling rate                            : 48.0 KHz
Bit depth                                : 16 bits
Compression mode                         : Lossy
Stream size                              : 112 MiB (7%)
Language                                 : English
Default                                  : Yes
Forced                                   : No

Text
ID                                       : 3
Format                                   : UTF-8
Codec ID                                 : S_TEXT/UTF8
Codec ID/Info                            : UTF-8 Plain Text
Default                                  : Yes
Forced                                   : No
[ www.Speed.Cd ] - Vegas.S01E06.1080p.WEB-DL.DD5.1.H.264-KiNGS/Vegas.S01E06.1080p.WEB-DL.DD5.1.H.264-KiNGS.mkv 1.64 GB
[ www.Speed.Cd ] - Vegas.S01E06.1080p.WEB-DL.DD5.1.H.264-KiNGS/Vegas.S01E06.1080p.WEB-DL.DD5.1.H.264-KiNGS.nfo 3.483 KB
[ www.Speed.Cd ] - Vegas.S01E06.1080p.WEB-DL.DD5.1.H.264-KiNGS/www.Speed.Cd read me .txt 47 B
Gathering some info...

Register and log in Isohunt and see no captcha anymore!

4000 symbols left
Hash 5adc731c1fcf1cbe6f0bbc16187e4123798a163e

Related torrents for "Vegas S01E06 1080p WEB-DL DD5 1 H 264-KiNGS"

Torrent search:

season 01 episode 06 fullhd web-dl