imdb
rating

3.5
The Swan Princess Christmas

The Swan Princess Christmas (2012)

Animation

Full description
quality   dvdrip dvd

The.Swan.Princess.Christmas.2012.DVDRip.XVID.AC3.HQ.Hive-CM8

Size 1.21 GB   0 seeders     Added 2012-11-15 03:53:21

Stream torrent
Starting‥ You need BitLord! Get it from 1BitLord.com
To download or stream you need BitLord. Visit them at BitLord.com
.
..............................Site Info...........................

Scenetime .Always on time . friendly online private torrent community ..

        Seed back for speed


...................................NFO:.................................................[IMG]image[/IMG]


[color=blue][size=4][b]The.Swan.Princess.Christmas.2012.DVDRip.XVID.AC3.HQ.Hive-CM8[/b][/size][/color]


[b]Thx Hive

CM8 Doing It Right The First Time :D


Source: DVD-R Thx LTFS

Encode:
Dvd had great quality, did the usual,sharpness,brightness,rgb and denoise
got very nice

enjoy

Video: 720x400 @bitrate 1700 2pass
Audio: English AC3 2.0 Stereo (as on dvd)
Sample: yes included
Subs: yes english,english hi, and spanish in srt /subs [/b]
 
http://www.imdb.com/title/tt1984279/


General
Complete name                  : The.Swan.Princess.Christmas.2012.DVDRip.XVID.AC3.HQ.Hive-CM8.avi
Format                         : AVI
Format/Info                    : Audio Video Interleave
File size                      : 1.12 GiB
Duration                       : 1h 24mn
Overall bit rate               : 1 900 Kbps
Writing application            : Nandub v1.0rc2
Writing library                : Nandub build 1853/release

Video
ID                             : 0
Format                         : MPEG-4 Visual
Format profile                 : Advanced Simple@L5
Format settings, BVOP          : 2
Format settings, QPel          : Yes
Format settings, GMC           : No warppoints
Format settings, Matrix        : Default (H.263)
Muxing mode                    : Packed bitstream
Codec ID                       : XVID
Codec ID/Hint                  : XviD
Duration                       : 1h 24mn
Bit rate                       : 1 699 Kbps
Width                          : 720 pixels
Height                         : 400 pixels
Display aspect ratio           : 16:9
Frame rate                     : 23.976 fps
Color space                    : YUV
Chroma subsampling             : 4:2:0
Bit depth                      : 8 bits
Scan type                      : Progressive
Compression mode               : Lossy
Bits/(Pixel*Frame)             : 0.246
Stream size                    : 1 022 MiB (89%)
Writing library                : XviD 1.2.1 (UTC 2008-12-04)

Audio
ID                             : 1
Format                         : AC-3
Format/Info                    : Audio Coding 3
Format profile                 : Dolby Digital
Mode extension                 : CM (complete main)
Format settings, Endianness    : Big
Codec ID                       : 2000
Duration                       : 1h 24mn
Bit rate mode                  : Constant
Bit rate                       : 192 Kbps
Channel(s)                     : 2 channels
Channel positions              : Front: L R
Sampling rate                  : 48.0 KHz
Bit depth                      : 16 bits
Compression mode               : Lossy
Stream size                    : 115 MiB (10%)
Alignment                      : Split accross interleaves
Interleave, duration           : 42 ms (1.00 video frame)
Interleave, preload duration   : 500 ms


	
	
[img]image[/img]
[img]image[/img]
[img]image[/img]
[img]image[/img]





Greetz

ViSiON,SPK,SceneLovers,PRESTiGE,SANTi,3LT0N,YanKeeS,COPYxRIGHT,THC,T0XiC
D2U,LKRG,ADTRG,Feel-Free,KoDeKinG,FLAWL3SS,WBZ,BHRG,26K,NOVA,MAGNET
Unevano,BigVik,Rapeseed,SAFC,goldadvance,KaN1vE,Pinnz,Wayne,HiGH
SeeN,jtr,Limey,ICONiK,4PlayHD,THEDEN-RG,eXceSs,AKS74u,TED
Mr Hive,and most P2P groups
Great Work Guys :D

LOOKING FOR ANYTHING YOU WANT TO LOOK AND SOUND BETTER

CM8@hushmail.com		
Read this before playing this Video.txt 222 B
sample.avi 11.616 MB
Subs/ESP Subs/The.Swan.Princess.Christmas.2012.DVDRip.XVID.AC3.HQ.Hive-CM8.srt 74.135 KB
Gathering some info...

Register and log in Isohunt and see no captcha anymore!

4000 symbols left
Hash 40EF7E47EC10614CB0E938FFAB244C3CAE77212D

Related torrents for "The.Swan.Princess.Christmas.2012.DVDRip.XVID.AC3.HQ.Hive-CM8"

Torrent search:

dvdrip 2012