imdb
rating

6.5
Here Comes the Boom

Here Comes the Boom (2012)

Action, Comedy

Full description
quality   dvdrip hd

Here Comes The Boom 2012 CAM XViD - INSPiRAL

Size 1.503 GB   0 seeders     Added 2012-11-15 03:54:27

Stream torrent
Starting‥ You need BitLord! Get it from BitLord.com
10
To download or stream you need BitLord. Visit them at BitLord.com
.
..............................Site Info...........................

Scenetime .Always on time . friendly online private torrent community ..

        Seed back for speed


...................................NFO:.................................................[IMG]image[/IMG]

 
TITLE: 

Here Comes The Boom 2012 CAM XViD - INSPiRAL

IMDB: 
 
http://www.imdb.com/title/tt1648179/


SOURCES:

VIDEO - HP THANKS
AUDIO - HP THANKS
SUBS  - None Add

STATS:

Video
ID                                       : 0
Format                                   : MPEG-4 Visual
Format profile                           : Advanced Simple@L5
Format settings, BVOP                    : 2
Format settings, QPel                    : No
Format settings, GMC                     : No warppoints
Format settings, Matrix                  : Default (MPEG)
Muxing mode                              : Packed bitstream
Codec ID                                 : XVID
Codec ID/Hint                            : XviD
Duration                                 : 1h 38mn
Bit rate                                 : 1 863 Kbps
Width                                    : 608 pixels
Height                                   : 304 pixels
Display aspect ratio                     : 2.000
Frame rate                               : 29.970 fps
Color space                              : YUV
Chroma subsampling                       : 4:2:0
Bit depth                                : 8 bits
Scan type                                : Progressive
Compression mode                         : Lossy
Bits/(Pixel*Frame)                       : 0.336
Stream size                              : 1.29 GiB (93%)
Writing library                          : XviD 64

Audio
ID                                       : 1
Format                                   : MPEG Audio
Format version                           : Version 1
Format profile                           : Layer 3
Mode                                     : Joint stereo
Mode extension                           : MS Stereo
Codec ID                                 : 55
Codec ID/Hint                            : MP3
Duration                                 : 1h 38mn
Bit rate mode                            : Constant
Bit rate                                 : 128 Kbps
Channel(s)                               : 2 channels
Sampling rate                            : 48.0 KHz
Compression mode                         : Lossy
Stream size                              : 90.6 MiB (6%)
Alignment                                : Split accross interleaves
Interleave, duration                     : 33 ms (1.00 video frame)
Interleave, preload duration             : 500 ms


NOTES:
Ok first off thanks too HP for yet another source to work with ....cheers m8ty.
Right video was ok but had issues with glares throughout the film,also it was cammed at a bad angle and had black borders top and bottom with wrong AR.
Audio not to bad for cam audio....but just needed balancing out better.


WORKDONE:

First took the video and cropped the black borders and reszied too a better res,so the AR looked better.But wasn't happy with the angle still,so opted to use the rotate filter and turned the video so it was dam close to level.
Of course this made black borders that sloped in each corner ....and was going to just crop but would have lost alot more video so instead i used the perspective filter so i could pull the corners too remove the borders.....downside it meant AR not dead right but loooks better too me now anyway.
From there we needed to lower the glare so had to change the contrast,brightness and intes.....had to try and find a balance so i could keep the contrast close to black but whilst trying to tone down the glare....still not dead right,but better now.

Also tweaked with the colouring slightly and the sat etc.....the other main thing was because the res was sooooo small i had to upscale the video,but by doing this,it makes any faults 10x worse...as in noise etc...
So had to used a HS smoother on some mad high settings,before finally adding some sharpness back.

Overall ...nothing special but more than watchable for cam lovers and specially on smaller screens....viewed on a  22" lcd last nite and was decent ;-)


SCREENS:

[img]image[/img]
[img]image[/img]
[img]image[/img]
[img]image[/img]
[img]image[/img]
[img]image[/img]


GREETZ: 

Past,Present and Future + Many Thanks Meggafast!!!

[IMG]image[/IMG]		
HCTB.r00 15 MB
HCTB.r01 15 MB
HCTB.r02 15 MB
Gathering some info...

Register and log in Isohunt and see no captcha anymore!

4000 symbols left
Hash 96F8064225CDC4167D253030AD592A032149FE46

Related torrents for "Here Comes The Boom 2012 CAM XViD - INSPiRAL"

Torrent search:

cam 2012