The Devils Ride

The Devils Ride (2014)

Full description

The Devil's Trap

Size 1.439 GB   0 seeders     Added 2012-11-15 21:40:25

Stream torrent
Starting‥ You need BitLord! Get it from BitLord.com
10
To download or stream you need BitLord. Visit them at BitLord.com
Frantisek Vlacil - Dablova past AKA The Devil's Trap [+Extras] (1962)

Language	Czech
Subtitles	English
 
http://www.imdb.com/title/tt0054780

An expertly photographed film from the Czech New Wave that received a Special Achievement Award at the Locarno IFF. The story takes place in the early 18th century when a priest arrives in a small town to investigate the rumors that a miller's family, who survived a house burning, are in league with the devil.

Yes, as THE NEW YORK TIMES review says, "the subject matter is familiar to anyone who has seen The Seventh Seal, Day of Wrath or Mother Joan of the Angels", but the excellent cast and superior camera work are reasons enough to see this film. There are several dolly or tracking shots that are eye-opening: the repeated shot where the camera seems to fly from the hill above the mill down to the mill's front door, and the scene where the camera follows Martina as she runs to the mill to warn of the coming inquisitor, just to name two examples.

The score by Zdenek Liska is excellent. With custom English subtitles prepared for KG by Kostej and MENiSCUS.

Set in the 18h century when the Inquistion was still in force. A small town is one day visited by a priest who is there on a secret mission. He is a member of the Inquisition sent to investigate the activities of a local miller. The miller and his son are the descendants of an old family whose ancestral home burned down a century ago, but was rebuilt from scratch. The miller inherited much of his knowledge about the land, water, and a building's stability from generations of family experience. His reputation for finding water and predicting when a structure might collapse have come to the attention of the Inquisition -surely he must be in league with the Devil. ~ Eleanor Mannikka, All Movie Guide

One of the earliest films of the Czech New Wave with typically ingenious music by Zdenek Liska, great camera and other elements typical for the CNW. 




-------not my rip---------

File size : 1.16 GiB
Duration : 1h 25mn
Overall bit rate : 1 933 Kbps
Writing application : VirtualDubMod 1.5.10.2 (build 2540/release)
Writing library : VirtualDubMod build 2540/release

Video
ID : 0
Format : MPEG-4 Visual
Format profile : Advanced Simple@L5
Format settings, BVOP : Yes
Format settings, QPel : No
Format settings, GMC : No warppoints
Format settings, Matrix : Default (MPEG)
Codec ID : XVID
Codec ID/Hint : XviD
Duration : 1h 25mn
Bit rate : 1 795 Kbps
Width : 640 pixels
Height : 480 pixels
Display aspect ratio : 4:3
Frame rate : 25.000 fps
Color space : YUV
Chroma subsampling : 4:2:0
Bit depth : 8 bits
Scan type : Progressive
Compression mode : Lossy
Bits/(Pixel*Frame) : 0.234
Stream size : 1.08 GiB (93%)
Writing library : XviD 58

Audio
ID : 1
Format : MPEG Audio
Format version : Version 1
Format profile : Layer 3
Mode : Joint stereo
Mode extension : MS Stereo
Codec ID : 55
Codec ID/Hint : MP3
Duration : 1h 25mn
Bit rate mode : Constant
Bit rate : 128 Kbps
Channel(s) : 2 channels
Sampling rate : 48.0 KHz
Compression mode : Lossy
Stream size : 78.5 MiB (7%)
Alignment : Aligned on interleaves
Interleave, duration : 40 ms (1.00 video frame)
Interleave, preload duration : 504 ms 

**************************************

Freakyflicks is a free and open community dedicated to preserving and sharing cinematic art in the digital era. Our goal is to disseminate such works of art to the widest audience possible through the channels provided by P2P technology.

    The Freakyflicks collection is limited to those films that have played an exceptional role in the history of cinema and its progression in becoming a great art. Films that are usually described as classic, cult, arthouse and avant-garde.

    If you have films that fit this description feel free to share them and participate in our community. All you need do is include this tag in your upload and join us at the forum to announce your release.

    https://board.freakyflicks.org/index.php

    'If we all seed just 1:1, give at least what we take, this torrent will NEVER DIE        
No. of audio streams ..: 1 		
Dablova past.avi 1.244 GB
Dablova past.English.srt 33.17 KB
Dablova past.idx 50.596 KB
Gathering some info...

Register and log in Isohunt and see no captcha anymore!

4000 symbols left
Hash 73E3BE4E331EE3C548567489D52EBA1EB89B691B

Related torrents for "The Devil's Trap"