imdb
rating

6.7
Kalifornia

Kalifornia (1993)

Crime, Thriller

Full description
quality   dvdrip x264 hd bd fullhd hdtv

Kalifornia.1993.1080p.BluRay.x264-THUGLiNE

Size 8.519 GB   0 seeders     Added 2012-11-16 06:56:43

Stream torrent
Starting‥ You need BitLord! Get it from 1BitLord.com
To download or stream you need BitLord. Visit them at BitLord.com
Video 
ID : 1 
Format : AVC 
Format/Info : Advanced Video Codec 
Format profile : High@L4.1 
Format settings, CABAC : Yes 
Format settings, ReFrames : 5 frames 
Codec ID : V_MPEG4/ISO/AVC 
Duration : 1h 58mn 
Bit rate : 8 106 Kbps 
Width : 1 920 pixels 
Height : 816 pixels 
Display aspect ratio : 2.35:1 
Frame rate mode : Constant 
Frame rate : 23.976 fps 
Color space : YUV 
Chroma subsampling : 4:2:0 
Bit depth : 8 bits 
Scan type : Progressive 
Bits/(Pixel*Frame) : 0.216 
Stream size : 6.53 GiB (82%) 
Writing library : x264 core 98 r1649 c54c47d 


Audio 
ID : 2 
Format : DTS 
Format/Info : Digital Theater Systems 
Codec ID : A_DTS 
Duration : 1h 58mn 
Bit rate mode : Constant 
Bit rate : 1 510 Kbps 
Channel(s) : 6 channels 
Channel positions : Front: L C R, Side: L R, LFE 
Sampling rate : 48.0 KHz 
Bit depth : 24 bits 
Compression mode : Lossy 
Stream size : 1.25 GiB (16%) 


NFO: 
image

Thumbnails: 
image		
Kalifornia.1993.1080p.BluRay.x264-THUGLiNE.mkv 8.519 GB
Gathering some info...

Register and log in Isohunt and see no captcha anymore!

4000 symbols left
Hash 03BE6861E37B876ED669387398E5F83445D3A247

Related torrents for "Kalifornia.1993.1080p.BluRay.x264-THUGLiNE"

Torrent search:

1993 x264 fullhd bd