imdb
rating

5.5
Price Check

Price Check (2012)

Comedy

Full description
quality   dvdrip cam dvdr x264 hd bd

Price Check 2012 DVDRip XviD-NYDIC

Size 745.15 MB   0 seeders     Added 2012-11-16 09:11:19

Stream torrent
Starting‥ You need BitLord! Get it from BitLord.com
To download or stream you need BitLord. Visit them at BitLord.com
\r\n\r\n\r\nVideo\r\nID : 0\r\nFormat : MPEG-4 Visual\r\nFormat profile : Advanced Simple@L5\r\nFormat settings, BVOP : 2\r\nFormat settings, QPel : Yes\r\nFormat settings, GMC : No warppoints\r\nFormat settings, Matrix : Default (H.263)\r\nCodec ID : XVID\r\nCodec ID/Hint : XviD\r\nDuration : 2h 44mn\r\nBit rate : 500 Kbps\r\nWidth : 640 pixels\r\nHeight : 272 pixels\r\nDisplay aspect ratio : 2.35:1\r\nFrame rate : 23.976 fps\r\nColor space : YUV\r\nChroma subsampling : 4:2:0\r\nBit depth : 8 bits\r\nScan type : Progressive\r\nCompression mode : Lossy\r\nBits/(Pixel*Frame) : 0.120\r\nStream size : 588 MiB (85%)\r\nWriting library : XviD 1.2.1 (UTC 2008-12-04)\r\n\r\nAudio\r\nID : 1\r\nFormat : MPEG Audio\r\nFormat version : Version 1\r\nFormat profile : Layer 3\r\nMode : Joint stereo\r\nMode extension : MS Stereo\r\nCodec ID : 55\r\nCodec ID/Hint : MP3\r\nDuration : 2h 44mn\r\nBit rate mode : Constant\r\nBit rate : 80.0 Kbps\r\nChannel(s) : 2 channels\r\nSampling rate : 32.0 KHz\r\nCompression mode : Lossy\r\nStream size : 94.2 MiB (14%)\r\nAlignment : Aligned on interleaves\r\nInterleave, duration : 167 ms (4.00 video frames)\r\nInterleave, preload duration : 216 ms\r\nWriting library : LAME3.99r\r\nEncoding settings : -m j -V 4 -q 2 -lowpass 13.5 -b 80\r\n\r\n\r\n
Price Check.2012.DVDRip.XviD-NYDIC/Info.nfo 5.215 KB
Price Check.2012.DVDRip.XviD-NYDIC/Price Check.2012.DVDRip.wmv 744.989 MB
Price Check.2012.DVDRip.XviD-NYDIC/READ this before playing the Video.txt 5.215 KB
Gathering some info...

Register and log in Isohunt and see no captcha anymore!

4000 symbols left
Hash 9362911ee7adf6044ec5d45e4b0dda1c8796305e

Related torrents for "Price Check 2012 DVDRip XviD-NYDIC"

Torrent search:

dvdrip 2012