imdb
rating

8.5
The Dark Knight Rises

The Dark Knight Rises (2012)

Action, Crime, Drama, Thriller

Full description

The Dark Knight Rises 2012 BRRip 720p x264 - RiSES

Size 1.405 GB   0 seeders     Added 2012-11-16 12:41:47

Stream torrent
Starting‥ You need BitLord! Get it from 1BitLord.com
To download or stream you need BitLord. Visit them at BitLord.com
[img]image[/img]

[b]The Dark Knight Rises 2012 BRRip 720p x264 - [RiSES][/b]
[b][/b]
[b]Source Used :-[/b]
[b][/b]
[b]Video - Sparks - Thanks![/b]
[b]Audio - Sparks - Thanks![/b]
[b][/b]
[b]Video[/b]
[b]ID : 1[/b]
[b]Format : AVC[/b]
[b]Format/Info : Advanced Video Codec[/b]
[b]Format profile : High@L4.1[/b]
[b]Format settings, CABAC : Yes[/b]
[b]Format settings, ReFrames : 3 frames[/b]
[b]Codec ID : avc1[/b]
[b]Codec ID/Info : Advanced Video Coding[/b]
[b]Duration : 2h 44mn[/b]
[b]Bit rate mode : Variable[/b]
[b]Bit rate : 1 000 Kbps[/b]
[b]Maximum bit rate : 15.0 Mbps[/b]
[b]Width : 1 280 pixels[/b]
[b]Height : 528 pixels[/b]
[b]Display aspect ratio : 2.40:1[/b]
[b]Frame rate mode : Constant[/b]
[b]Frame rate : 23.976 fps[/b]
[b]Color space : YUV[/b]
[b]Chroma subsampling : 4:2:0[/b]
[b]Bit depth : 8 bits[/b]
[b]Scan type : Progressive[/b]
[b]Bits/(Pixel*Frame) : 0.062[/b]
[b]Stream size : 1.15 GiB (88%)[/b]
[b]Writing library : x264 core 125 r2200 999b753[/b]
[b]Encoding settings : cabac=1 / ref=4 / deblock=1:-1:-1 / analyse=0x3:0x133 / me=tesa / subme=11 / psy=1 / psy_rd=1.00:0.15 / mixed_ref=1 / me_range=24 / chroma_me=1 / trellis=2 / 8x8dct=1 / cqm=0 / deadzone=21,11 / fast_pskip=0 / chroma_qp_offset=-3 / threads=12 / lookahead_threads=2 / sliced_threads=0 / slices=4 / nr=0 / decimate=1 / interlaced=0 / bluray_compat=1 / constrained_intra=0 / bframes=3 / b_pyramid=1 / b_adapt=2 / b_bias=0 / direct=3 / weightb=1 / open_gop=1 / weightp=0 / keyint=23 / keyint_min=1 / scenecut=40 / intra_refresh=0 / rc_lookahead=23 / rc=2pass / mbtree=1 / bitrate=1000 / ratetol=1.0 / qcomp=0.60 / qpmin=0 / qpmax=69 / qpstep=4 / cplxblur=20.0 / qblur=0.5 / vbv_maxrate=15000 / vbv_bufsize=15000 / nal_hrd=vbr / ip_ratio=1.40 / aq=1:1.00[/b]
[b]Encoded date : UTC 2012-11-15 16:00:53[/b]
[b]Tagged date : UTC 2012-11-16 03:04:58[/b]
[b]Color primaries : BT.709[/b]
[b]Transfer characteristics : BT.709[/b]
[b]Matrix coefficients : BT.709[/b]
[b][/b]
[b]Audio[/b]
[b]ID : 2[/b]
[b]Format : AC-3[/b]
[b]Format/Info : Audio Coding 3[/b]
[b]Mode extension : CM (complete main)[/b]
[b]Format settings, Endianness : Big[/b]
[b]Codec ID : ac-3[/b]
[b]Duration : 2h 44mn[/b]
[b]Bit rate mode : Constant[/b]
[b]Bit rate : 128 Kbps[/b]
[b]Channel(s) : 6 channels[/b]
[b]Channel positions : Front: L C R, Side: L R, LFE[/b]
[b]Sampling rate : 48.0 KHz[/b]
[b]Bit depth : 16 bits[/b]
[b]Compression mode : Lossy[/b]
[b]Delay relative to video : 83ms[/b]
[b]Stream size : 151 MiB (11%)[/b]
[b]Title : �j[/b]
[b]Language : English[/b]
[b]Encoded date : UTC 2012-11-16 03:04:52[/b]
[b]Tagged date : UTC 2012-11-16 03:04:58[/b]
[b][/b]
[b]IMDB: http://www.imdb.com/title/tt1345836/[/b]

[img]image[/img]
[b]Eight years after the events of The Dark Knight, the terrorist leader Bane arrives in Gotham City, pushing it and its police force to their limits, forcing its former hero Batman to resurface after taking the fall for Harvey Dent's crimes.[/b]
[b][/b]
[b]Looking For A Server To Encode Faster.Help Us Guys........For More Rips.[/b]
[b]rises.boom@hushmail.com[/b]

[b]Geetz : UNiQUE,26K,INSPiRAL,SANTi,CrEwsAdE,RESiSTANCE[/b]
[b]And to all groups past and present[/b]
SAMPLE.mkv 9.923 MB
The Dark Knight Rises 2012 BRRip 720p x264 - [RiSES].mp4 1.395 GB
Gathering some info...

Register and log in Isohunt and see no captcha anymore!

4000 symbols left
Hash D0BE66791D6B189D3ADD817D988AC3745F0B7CBA

Related torrents for "The Dark Knight Rises 2012 BRRip 720p x264 - RiSES"

Torrent search:

x264 hd 2012 bd