Crash! Che botte - Strippo Strappo Stroppio 3 Supermen in Cina (1973) [XviD - Italian Spanish Mp3] MIRCrew [TNT Village]

Size 849.478 MB   1 seeders     Added 2012-11-17 02:00:35

Stream torrent
Starting‚Ä• You need BitLord! Get it from BitLord.com
To download or stream you need BitLord. Visit them at BitLord.com
Crash! Che botte - Strippo Strappo Stroppio 3 Supermen in Cina (1973) [XviD - Italian Spanish Mp3] MIRCrew [TNT Village]


[color=#FF6600][b][IMG]image[/IMG]

Crash! Che botte - Strippo Strappo Stroppio 3 Supermen in Cina (1973)



[IMG]image[/IMG]

Nazione Italia- Honk Kong
Anno 1974
Genere Avventura fantastica, Azione, Comico
Regia Bitto Albertini
Durata 102"

[IMG]image[/IMG] 
 
Robert Malcolm, Antonio Cantafora, Sal Borgese, Jacques Dufilho, Lieh Lo, Szu Shih,Alberto Farnese, Lin Tung, Isabella Biagini, Jackie Chan, Chiang Ling, Hui-Ling Liu

[IMG]image[/IMG]

[IMG]image[/IMG]

[IMG]image[/IMG]


Robert Wallace viene inviato ad Hong Kong con l'incarico sia di porre fine al traffico di droga sia di liberare sei agenti segreti fatti prigionieri dalla citata banda. Qui, Bob Wallace trova aiuto in un esperto di lotta kung-fu, Tang; 

in una graziosa agente segreta la cinese Suzy e in due suoi "amici" ladri Max e Jerry...............

Storyline

Robert Wallace travels to Hong Kong to bust a gang of drug trafficker's. There he finds help from Tang and Suzy, as well as his fellow Supermen Max & Jerry.

[IMG]image[/IMG]

[IMG]image[/IMG]


[IMG]image[/IMG]

General
Complete name : Crash! Che botte - Strippo Strappo Stroppio 3 Supermen in Cina (1974).avi
Format : AVI
Format/Info : Audio Video Interleave
File size : 810 MiB
Duration : 1h 33mn
Overall bit rate : 1 218 Kbps
Writing application : VirtualDubMod 1.4.13
Writing library : VirtualDub build 14328/release

Video
ID : 0
Format : MPEG-4 Visual
Format profile : Advanced Simple@L5
Format settings, BVOP : Yes
Format settings, QPel : No
Format settings, GMC : No warppoints
Format settings, Matrix : Default (H.263)
Codec ID : XVID
Codec ID/Hint : XviD
Duration : 1h 33mn
Bit rate : 928 Kbps
Width : 560 pixels
Height : 224 pixels
Display aspect ratio : 2.500
Frame rate : 25.000 fps
Color space : YUV
Chroma subsampling : 4:2:0
Bit depth : 8 bits
Scan type : Progressive
Bits/(Pixel*Frame) : 0.296
Stream size : 618 MiB (76%)
Writing library : XviD 1.1.0 (UTC 2005-11-22)

Audio #1
ID : 1
Format : MPEG Audio
Format version : Version 1
Format profile : Layer 3
Mode : Joint stereo
Mode extension : MS Stereo
Codec ID : 55
Codec ID/Hint : MP3
Duration : 1h 33mn
Bit rate mode : Variable
Bit rate : 112 Kbps
Channel(s) : 2 channels
Sampling rate : 44.1 KHz
Stream size : 74.6 MiB (9%)
Alignment : Aligned on interleaves
Interleave, duration : 26 ms (0.65 video frame)
Interleave, preload duration : 187 ms
Writing library : LAME3.90.
Encoding settings : -m j -V 4 -q 2 -lowpass 16 --abr 112

Audio #2
ID : 2
Format : MPEG Audio
Format version : Version 1
Format profile : Layer 3
Mode : Joint stereo
Codec ID : 55
Codec ID/Hint : MP3
Duration : 1h 33mn
Bit rate mode : Constant
Bit rate : 160 Kbps
Channel(s) : 2 channels
Sampling rate : 48.0 KHz
Stream size : 106 MiB (13%)
Alignment : Split accross interleaves
Interleave, duration : 40 ms (1.00 video frame)
Interleave, preload duration : 500 ms



[/b]
[/color]
Crash! Che botte - Strippo Strappo Stroppio 3 Supermen in Cina (1973).avi 849.478 MB
Gathering some info...

Register and log in Isohunt and see no captcha anymore!

4000 symbols left
Hash B23E7648C13334F92A3B29C11F04F8ACD11BD1EC