imdb
rating

7.9
Arrow

Arrow (2012)

Action, Adventure, Crime, Drama, Mystery, Science Fiction

Full description

Arrow.S01E06.720p.WEB-DL.DD5.1.H.264-TB

Size 1.404 GB   0 seeders     Added 2012-11-17 07:57:54

Stream torrent
Starting‥ You need BitLord! Get it from 1BitLord.com
To download or stream you need BitLord. Visit them at BitLord.com
- http://www.Speed.Cd
 http://www.Speed.Cd       the fast  and The Hottest Private Tracker on the net

Please Seed back to make the speed Faster!!
 ............ NFO .............
-GeneralUnique ID                                : 241734222237337376411875427412941536723 (0xB5DC5156085E7483815F44B7F890FDD3)Complete name                            : Arrow.S01E06.Legacies.720p.WEB-DL.DD5.1.H.264-TB.mkvFormat                                   : MatroskaFormat version                           : Version 2File size                                : 1.31 GiBDuration                                 : 42mn 3sOverall bit rate                         : 4 450 KbpsMovie name                               : Arrow S01E06 by TeddyBlueEncoded date                             : UTC 2012-11-15 17:59:49Writing application                      : mkvmerge v5.8.0 (No Sleep / Pillow) built on Sep  2 2012 15:37:04Writing library                          : libebml v1.2.3 + libmatroska v1.3.0VideoID                                       : 1Format                                   : AVCFormat/Info                              : Advanced Video CodecFormat profile                           : High@L3.1Format settings, CABAC                   : NoFormat settings, ReFrames                : 2 framesMuxing mode                              : Header strippingCodec ID                                 : V_MPEG4/ISO/AVCDuration                                 : 42mn 3sBit rate                                 : 3 978 KbpsWidth                                    : 1 280 pixelsHeight                                   : 720 pixelsDisplay aspect ratio                     : 16:9Frame rate                               : 23.976 fpsColor space                              : YUVChroma subsampling                       : 4:2:0Bit depth                                : 8 bitsScan type                                : ProgressiveBits/(Pixel*Frame)                       : 0.180Stream size                              : 1.17 GiB (89%)Language                                 : EnglishDefault                                  : YesForced                                   : NoColor primaries                          : BT.709-5, BT.1361, IEC 61966-2-4, SMPTE RP177Transfer characteristics                 : BT.709-5, BT.1361Matrix coefficients                      : BT.709-5, BT.1361, IEC 61966-2-4 709, SMPTE RP177AudioID                                       : 2Format                                   : AC-3Format/Info                              : Audio Coding 3Mode extension                           : CM (complete main)Format settings, Endianness              : BigMuxing mode                              : Header strippingCodec ID                                 : A_AC3Duration                                 : 42mn 3sBit rate mode                            : ConstantBit rate                                 : 384 KbpsChannel(s)                               : 6 channelsChannel positions                        : Front: L C R, Side: L R, LFESampling rate                            : 48.0 KHzBit depth                                : 16 bitsCompression mode                         : LossyStream size                              : 116 MiB (9%)Language                                 : EnglishDefault                                  : YesForced                                   : No-------------------------------------Torrent downloaded from http://thepiratebay.se
Arrow.S01E06.Legacies.720p.WEB-DL.DD5.1.H.264-TB.mkv 1.404 GB
Arrow.S01E06.Legacies.720p.WEB-DL.DD5.1.H.264-TB.nfo 3.265 KB
www.Speed.Cd read me .txt 47 B
Gathering some info...

Register and log in Isohunt and see no captcha anymore!

4000 symbols left
Hash 4BCB80037909CB6043D3A35276159473B7C6251E

Related torrents for "Arrow.S01E06.720p.WEB-DL.DD5.1.H.264-TB"

Torrent search:

season 01 episode 06 hd web-dl