imdb
rating

7.9
Arrow

Arrow (2012)

Action, Adventure, Crime, Drama, Mystery, Science Fiction

Full description

Arrow S01E06 1080p WEB-DL DD5 1 H 264-TB

Size 1.711 GB   0 seeders     Added 2012-11-17 08:45:33

Stream torrent
Starting‥ You need BitLord! Get it from 1BitLord.com
To download or stream you need BitLord. Visit them at BitLord.com
.
..............................Site Info...........................

 -   *_*   


Scenetime .Always on time . friendly online private torrent community ..

     We care to share . Join us on 

    Be the first to get new release at 

        Seed back for speed


...................................NFO:.................................................General
Unique ID                                : 177386853776582734799802191597852882702 (0x85737720B6480EA08A58069455AEF70E)
Complete name                            : Arrow.S01E06.Legacies.1080p.WEB-DL.DD5.1.H.264-TB.mkv
Format                                   : Matroska
Format version                           : Version 2
File size                                : 1.59 GiB
Duration                                 : 42mn 3s
Overall bit rate                         : 5 423 Kbps
Movie name                               : Arrow S01E06 by TeddyBlue
Encoded date                             : UTC 2012-11-15 17:59:02
Writing application                      : mkvmerge v5.8.0 ('No Sleep / Pillow') built on Sep  2 2012 15:37:04
Writing library                          : libebml v1.2.3 + libmatroska v1.3.0

Video
ID                                       : 1
Format                                   : AVC
Format/Info                              : Advanced Video Codec
Format profile                           : High@L4.0
Format settings, CABAC                   : Yes
Format settings, ReFrames                : 4 frames
Muxing mode                              : Header stripping
Codec ID                                 : V_MPEG4/ISO/AVC
Duration                                 : 42mn 3s
Bit rate                                 : 4 932 Kbps
Width                                    : 1 920 pixels
Height                                   : 1 080 pixels
Display aspect ratio                     : 16:9
Frame rate mode                          : Constant
Frame rate                               : 23.976 fps
Color space                              : YUV
Chroma subsampling                       : 4:2:0
Bit depth                                : 8 bits
Scan type                                : Progressive
Bits/(Pixel*Frame)                       : 0.099
Stream size                              : 1.45 GiB (91%)
Language                                 : English
Default                                  : Yes
Forced                                   : No
Color primaries                          : BT.709
Transfer characteristics                 : BT.709
Matrix coefficients                      : BT.709

Audio
ID                                       : 2
Format                                   : AC-3
Format/Info                              : Audio Coding 3
Mode extension                           : CM (complete main)
Format settings, Endianness              : Big
Muxing mode                              : Header stripping
Codec ID                                 : A_AC3
Duration                                 : 42mn 3s
Bit rate mode                            : Constant
Bit rate                                 : 384 Kbps
Channel(s)                               : 6 channels
Channel positions                        : Front: L C R, Side: L R, LFE
Sampling rate                            : 48.0 KHz
Bit depth                                : 16 bits
Compression mode                         : Lossy
Stream size                              : 116 MiB (7%)
Language                                 : English
Default                                  : Yes
Forced                                   : No		
{www.scenetime.com}Arrow.S01E06.1080p.WEB-DL.DD5.1.H.264-TB/Arrow.S01E06.Legacies.1080p.WEB-DL.DD5.1.H.264-TB.mkv 1.711 GB
{www.scenetime.com}Arrow.S01E06.1080p.WEB-DL.DD5.1.H.264-TB/Arrow.S01E06.Legacies.1080p.WEB-DL.DD5.1.H.264-TB.nfo 6.588 KB
{www.scenetime.com}Arrow.S01E06.1080p.WEB-DL.DD5.1.H.264-TB/Read this before playing this Video.txt 222 B
Gathering some info...

Register and log in Isohunt and see no captcha anymore!

4000 symbols left
Hash ef67c907ab7b7c99dbe51cdc280ae09aced0b1ab

Related torrents for "Arrow S01E06 1080p WEB-DL DD5 1 H 264-TB"

Torrent search:

season 01 episode 06 fullhd web-dl