imdb
rating

8.6
Supernatural

Supernatural (2005)

Drama, Mystery, Sci-Fi & Fantasy

Full description

Supernatural S08E07 720p WEB-DL DD5 1 H 264-ECI

Size 1.415 GB   0 seeders     Added 2012-11-17 12:41:54

Stream torrent
Starting‥ You need BitLord! Get it from BitLord.com
To download or stream you need BitLord. Visit them at BitLord.com
- 
http://www.Speed.Cd
 
http://www.Speed.Cd       the fast  and The Hottest Private Tracker on the net

Please Seed back to make the speed Faster!!
 ............ NFO .............
-General
Unique ID                                : 178074252695503810674154822059858942415 (0x85F7DA82D8CD7B4FABDACBC523D159CF)
Complete name                            : Supernatural.S08E07.A.Little.Slice.Of.Kevin.720p.WEB-DL.DD5.1.H.264-ECI.mkv
Format                                   : Matroska
Format version                           : Version 2
File size                                : 1.32 GiB
Duration                                 : 42mn 28s
Overall bit rate                         : 4 443 Kbps
Encoded date                             : UTC 2012-11-16 16:57:28
Writing application                      : mkvmerge v5.8.0 ('No Sleep / Pillow') built on Sep  2 2012 15:37:04
Writing library                          : libebml v1.2.3 + libmatroska v1.3.0

Video
ID                                       : 1
Format                                   : AVC
Format/Info                              : Advanced Video Codec
Format profile                           : High@L3.1
Format settings, CABAC                   : No
Format settings, ReFrames                : 2 frames
Format settings, GOP                     : N=1
Codec ID                                 : V_MPEG4/ISO/AVC
Duration                                 : 42mn 28s
Bit rate                                 : 3 971 Kbps
Width                                    : 1 280 pixels
Height                                   : 720 pixels
Display aspect ratio                     : 16:9
Frame rate mode                          : Constant
Frame rate                               : 23.976 fps
Color space                              : YUV
Chroma subsampling                       : 4:2:0
Bit depth                                : 8 bits
Scan type                                : Progressive
Bits/(Pixel*Frame)                       : 0.180
Stream size                              : 1.18 GiB (89%)
Language                                 : English
Default                                  : Yes
Forced                                   : No
Color primaries                          : BT.709
Transfer characteristics                 : BT.709
Matrix coefficients                      : BT.709

Audio
ID                                       : 2
Format                                   : AC-3
Format/Info                              : Audio Coding 3
Mode extension                           : CM (complete main)
Format settings, Endianness              : Big
Codec ID                                 : A_AC3
Duration                                 : 42mn 28s
Bit rate mode                            : Constant
Bit rate                                 : 384 Kbps
Channel(s)                               : 6 channels
Channel positions                        : Front: L C R, Side: L R, LFE
Sampling rate                            : 48.0 KHz
Bit depth                                : 16 bits
Compression mode                         : Lossy
Stream size                              : 117 MiB (9%)
Language                                 : English
Default                                  : Yes
Forced                                   : No		
Supernatural.S08E07.A.Little.Slice.Of.Kevin.720p.WEB-DL.DD5.1.H.264-ECI.mkv 1.415 GB
Supernatural.S08E07.A.Little.Slice.Of.Kevin.720p.WEB-DL.DD5.1.H.264-ECI.nfo 3.171 KB
www.Speed.Cd read me .txt 47 B
Gathering some info...

Register and log in Isohunt and see no captcha anymore!

4000 symbols left
Hash 8D38B33BA324498C49468674C10C73B43F904E9F

Related torrents for "Supernatural S08E07 720p WEB-DL DD5 1 H 264-ECI"

Torrent search:

episode 07 season 08 hd web-dl