Alain Cavalier - Irene (2009) XviD

Size 1.32 GB   0 seeders     Added 2012-11-17 13:52:44

Stream torrent
Starting‥ You need BitLord! Get it from 1BitLord.com
To download or stream you need BitLord. Visit them at BitLord.com
A video diary shot and recorded by the filmmaker, using little more than his imagination and the happenstance and flow of the everyday, finally layering in a lifetime of memories.

General 
Complete name : Irene.avi 
Format : AVI 
Format/Info : Audio Video Interleave 
File size : 1.23 GiB 
Duration : 1h 21mn 
Overall bit rate : 2 162 Kbps 
Writing application : VirtualDubMod 1.5.10.2 (build 2540/release) 
Writing library : VirtualDubMod build 2540/release 

Video 
ID : 0 
Format : MPEG-4 Visual 
Format profile : Advanced Simple@L5 
Format settings, BVOP : 1 
Format settings, QPel : No 
Format settings, GMC : No warppoints 
Format settings, Matrix : Default (MPEG) 
Codec ID : XVID 
Codec ID/Hint : XviD 
Duration : 1h 21mn 
Bit rate : 1 960 Kbps 
Width : 704 pixels 
Height : 400 pixels 
Display aspect ratio : 16:9 
Frame rate : 25.000 fps 
Color space : YUV 
Chroma subsampling : 4:2:0 
Bit depth : 8 bits 
Scan type : Progressive 
Compression mode : Lossy 
Bits/(Pixel*Frame) : 0.278 
Stream size : 1.11 GiB (91%) 
Writing library : XviD 64 

Audio 
ID : 1 
Format : AC-3 
Format/Info : Audio Coding 3 
Mode extension : CM (complete main) 
Format settings, Endianness : Big 
Codec ID : 2000 
Duration : 1h 21mn 
Bit rate mode : Constant 
Bit rate : 192 Kbps 
Channel(s) : 2 channels 
Channel positions : Front: L R 
Sampling rate : 48.0 KHz 
Bit depth : 16 bits 
Compression mode : Lossy 
Stream size : 112 MiB (9%) 
Alignment : Split accross interleaves 
Interleave, duration : 40 ms (1.00 video frame) 
Interleave, preload duration : 500 ms 



My rip.

Subs: Portuguese.		
Irene.avi 1.32 GB
Irene.ptb.srt 82.161 KB
Gathering some info...

Register and log in Isohunt and see no captcha anymore!

4000 symbols left
Hash EE7CAFC9A363CC8441470208758619A7D3D45DBC

Related torrents for "Alain Cavalier - Irene (2009) XviD"

Torrent search:

2009