Alain Cavalier - Irene (2009) x264

Size 1.366 GB   7 seeders     Added 2012-11-17 13:52:48

Stream torrent
Starting‥ You need BitLord! Get it from BitLord.com
To download or stream you need BitLord. Visit them at BitLord.com
A video diary shot and recorded by the filmmaker, using little more than his imagination and the happenstance and flow of the everyday, finally layering in a lifetime of memories.


General 
Unique ID : 259444361182444869162123437853363558249 (0xC32F2A99DEB3B3CD682AF1BBE7FA5769) 
Complete name : Irene.mkv 
Format : Matroska 
Format version : Version 2 
File size : 1.27 GiB 
Duration : 1h 21mn 
Overall bit rate : 2 237 Kbps 
Writing application : HandBrake 0.9.8 
Writing library : libmkv 0.6.5 

Video 
ID : 1 
Format : AVC 
Format/Info : Advanced Video Codec 
Format profile : High@L4.0 
Format settings, CABAC : Yes 
Format settings, ReFrames : 14 frames 
Codec ID : V_MPEG4/ISO/AVC 
Duration : 1h 21mn 
Bit rate : 2 001 Kbps 
Width : 716 pixels 
Height : 572 pixels 
Display aspect ratio : 16:9 
Frame rate : 25.000 fps 
Color space : YUV 
Chroma subsampling : 4:2:0 
Bit depth : 8 bits 
Scan type : Progressive 
Bits/(Pixel*Frame) : 0.195 
Stream size : 1.14 GiB (89%) 
Writing library : x264 core 120 
Encoding settings : cabac=1 / ref=14 / deblock=1:-3:-3 / analyse=0x3:0x133 / me=umh / subme=11 / psy=1 / psy_rd=1.10:0.00 / mixed_ref=1 / me_range=32 / chroma_me=1 / trellis=2 / 8x8dct=1 / cqm=0 / deadzone=21,11 / fast_pskip=0 / chroma_qp_offset=-2 / threads=4 / sliced_threads=0 / nr=0 / decimate=1 / interlaced=0 / bluray_compat=0 / constrained_intra=0 / bframes=9 / b_pyramid=2 / b_adapt=2 / b_bias=0 / direct=3 / weightb=1 / open_gop=0 / weightp=2 / keyint=250 / keyint_min=25 / scenecut=40 / intra_refresh=0 / rc_lookahead=60 / rc=crf / mbtree=1 / crf=16.5 / qcomp=0.60 / qpmin=3 / qpmax=69 / qpstep=4 / ip_ratio=1.40 / aq=2:1.00 
Language : English 
Default : Yes 
Forced : No 
Color primaries : BT.601-6 525, BT.1358 525, BT.1700 NTSC, SMPTE 170M 
Transfer characteristics : BT.709-5, BT.1361 
Matrix coefficients : BT.601-6 525, BT.1358 525, BT.1700 NTSC, SMPTE 170M 

Audio 
ID : 2 
Format : AC-3 
Format/Info : Audio Coding 3 
Mode extension : CM (complete main) 
Format settings, Endianness : Big 
Codec ID : A_AC3 
Duration : 1h 21mn 
Bit rate mode : Constant 
Bit rate : 192 Kbps 
Channel(s) : 2 channels 
Channel positions : Front: L R 
Sampling rate : 48.0 KHz 
Bit depth : 16 bits 
Compression mode : Lossy 
Stream size : 112 MiB (9%) 
Language : French 
Default : Yes 
Forced : No 

Menu 
00:00:00.000 : Chapter 1 
00:05:51.960 : Chapter 2 
00:14:03.800 : Chapter 3 
00:20:36.960 : Chapter 4 
00:30:09.000 : Chapter 5 
00:35:09.920 : Chapter 6 
00:40:58.200 : Chapter 7 
00:49:29.680 : Chapter 8 
00:58:40.800 : Chapter 9 
01:03:39.200 : Chapter 10 
01:10:59.920 : Chapter 11 
01:20:01.120 : Chapter 12 
01:21:24.080 : Chapter 13 

My rip.

Subs: Portuguese.		
Irene.mkv 1.366 GB
Irene.ptb.srt 82.161 KB
Gathering some info...

Register and log in Isohunt and see no captcha anymore!

4000 symbols left
Hash B42FFD5E55C728198152E96379BC1E4BC56EE877

Related torrents for "Alain Cavalier - Irene (2009) x264"

Torrent search:

2009 x264