imdb
rating

8.3
American Horror Story

American Horror Story (2011)

Drama, Horror, Mystery

Full description

American Horror Story S02E04 I Am Anne Frank Part 1 1080p WEB-DL

Size 1.812 GB   0 seeders     Added 2012-11-17 14:47:03

Stream torrent
Starting‥ You need BitLord! Get it from 1BitLord.com
To download or stream you need BitLord. Visit them at BitLord.com
.
..............................Site Info...........................

 -   *_*   


Scenetime .Always on time . friendly online private torrent community ..

     We care to share . Join us on 

    Be the first to get new release at 

        Seed back for speed


...................................NFO:.................................................General
Unique ID                                : 207808608935611112197164680489757158903 (0x9C567B75B8FF6154BBAB2A4C3E5DADF7)
Complete name                            : D:WEB-DLAmerican.Horror.Story.S02E04.I.Am.Anne.Frank.Part.1.1080p.WEB-DL.DD5.1.H.264-HoodBagAmerican Horror Story S02E04 I Am Anne Frank Part 1 1080p WEB-DL DD5.1 H.264 - HoodBag.mkv
Format                                   : Matroska
Format version                           : Version 2
File size                                : 1.69 GiB
Duration                                 : 42mn 47s
Overall bit rate                         : 5 647 Kbps
Encoded date                             : UTC 2012-11-08 14:33:39
Writing application                      : mkvmerge v5.8.0 ('No Sleep / Pillow') built on Sep  2 2012 15:37:04
Writing library                          : libebml v1.2.3 + libmatroska v1.3.0

Video
ID                                       : 1
Format                                   : AVC
Format/Info                              : Advanced Video Codec
Format profile                           : High@L4.0
Format settings, CABAC                   : Yes
Format settings, ReFrames                : 4 frames
Muxing mode                              : Header stripping
Codec ID                                 : V_MPEG4/ISO/AVC
Duration                                 : 42mn 47s
Bit rate                                 : 5 150 Kbps
Width                                    : 1 912 pixels
Height                                   : 1 072 pixels
Display aspect ratio                     : 16:9
Frame rate                               : 23.976 fps
Color space                              : YUV
Chroma subsampling                       : 4:2:0
Bit depth                                : 8 bits
Scan type                                : Progressive
Bits/(Pixel*Frame)                       : 0.105
Stream size                              : 1.54 GiB (91%)
Language                                 : English
Default                                  : Yes
Forced                                   : No
Color primaries                          : BT.709-5, BT.1361, IEC 61966-2-4, SMPTE RP177
Transfer characteristics                 : BT.709-5, BT.1361
Matrix coefficients                      : BT.709-5, BT.1361, IEC 61966-2-4 709, SMPTE RP177

Audio
ID                                       : 2
Format                                   : AC-3
Format/Info                              : Audio Coding 3
Mode extension                           : CM (complete main)
Format settings, Endianness              : Big
Muxing mode                              : Header stripping
Codec ID                                 : A_AC3
Duration                                 : 42mn 47s
Bit rate mode                            : Constant
Bit rate                                 : 384 Kbps
Channel(s)                               : 6 channels
Channel positions                        : Front: L C R, Side: L R, LFE
Sampling rate                            : 48.0 KHz
Bit depth                                : 16 bits
Compression mode                         : Lossy
Stream size                              : 118 MiB (7%)
Language                                 : English
Default                                  : Yes
Forced                                   : No		
{www.scenetime.com}American.Horror.Story.S02E04.I.Am.Anne.Frank.Part.1.1080p.WEB-DL.DD5.1.H.264-HoodBag/American Horror Story S02E04 I Am Anne Frank Part 1 1080p WEB-DL DD5.1 H.264 - HoodBag.mkv 1.812 GB
{www.scenetime.com}American.Horror.Story.S02E04.I.Am.Anne.Frank.Part.1.1080p.WEB-DL.DD5.1.H.264-HoodBag/American Horror Story S02E04 I Am Anne Frank Part 1 1080p WEB-DL DD5.1 H.264 - HoodBag.nfo 6.798 KB
{www.scenetime.com}American.Horror.Story.S02E04.I.Am.Anne.Frank.Part.1.1080p.WEB-DL.DD5.1.H.264-HoodBag/Read this before playing this Video.txt 222 B
Gathering some info...

Register and log in Isohunt and see no captcha anymore!

4000 symbols left
Hash c44945e6a81b4d3ec49929889fa263554c6e95dc

Related torrents for "American Horror Story S02E04 I Am Anne Frank Part 1 1080p WEB-DL"

Torrent search:

season 02 episode 04 fullhd web-dl