imdb
rating

8.6
Supernatural

Supernatural (2005)

Drama, Mystery, Sci-Fi & Fantasy

Full description

Supernatural S08E07 1080p WEB-DL DD5 1 H 264-ECI

Size 1.661 GB   1 seeders     Added 2012-11-17 15:01:06

Stream torrent
Starting‥ You need BitLord! Get it from BitLord.com
To download or stream you need BitLord. Visit them at BitLord.com
.
..............................Site Info...........................

 -   *_*   


Scenetime .Always on time . friendly online private torrent community ..

     We care to share . Join us on 

    Be the first to get new release at 

        Seed back for speed


...................................NFO:.................................................General
Unique ID                                : 210099133899927991570359673072357456337 (0x9E0F9F0F456B04B1AFA4FECA6A2BB9D1)
Complete name                            : Supernatural.S08E06.Southern.Comfort.720p.WEB-DL.DD5.1.H.264-ECI.mkv
Format                                   : Matroska
Format version                           : Version 2
File size                                : 1.34 GiB
Duration                                 : 42mn 15s
Overall bit rate                         : 4 533 Kbps
Encoded date                             : UTC 2012-11-08 21:03:53
Writing application                      : mkvmerge v5.8.0 ('No Sleep / Pillow') built on Sep  2 2012 15:37:04
Writing library                          : libebml v1.2.3 + libmatroska v1.3.0

Video
ID                                       : 1
Format                                   : AVC
Format/Info                              : Advanced Video Codec
Format profile                           : High@L3.1
Format settings, CABAC                   : No
Format settings, ReFrames                : 2 frames
Format settings, GOP                     : N=1
Codec ID                                 : V_MPEG4/ISO/AVC
Duration                                 : 42mn 15s
Bit rate                                 : 4 059 Kbps
Width                                    : 1 280 pixels
Height                                   : 720 pixels
Display aspect ratio                     : 16:9
Frame rate mode                          : Constant
Frame rate                               : 23.976 fps
Color space                              : YUV
Chroma subsampling                       : 4:2:0
Bit depth                                : 8 bits
Scan type                                : Progressive
Bits/(Pixel*Frame)                       : 0.184
Stream size                              : 1.20 GiB (90%)
Language                                 : English
Default                                  : Yes
Forced                                   : No
Color primaries                          : BT.709
Transfer characteristics                 : BT.709
Matrix coefficients                      : BT.709

Audio
ID                                       : 2
Format                                   : AC-3
Format/Info                              : Audio Coding 3
Mode extension                           : CM (complete main)
Format settings, Endianness              : Big
Codec ID                                 : A_AC3
Duration                                 : 42mn 15s
Bit rate mode                            : Constant
Bit rate                                 : 384 Kbps
Channel(s)                               : 6 channels
Channel positions                        : Front: L C R, Side: L R, LFE
Sampling rate                            : 48.0 KHz
Bit depth                                : 16 bits
Compression mode                         : Lossy
Stream size                              : 116 MiB (8%)
Language                                 : English
Default                                  : Yes
Forced                                   : No		
{www.scenetime.com}Supernatural.S08E07.1080p.WEB-DL.DD5.1.H.264-ECI/Read this before playing this Video.txt 222 B
{www.scenetime.com}Supernatural.S08E07.1080p.WEB-DL.DD5.1.H.264-ECI/Supernatural.S08E07.A.Little.Slice.Of.Kevin.1080p.WEB-DL.DD5.1.H.264-ECI.mkv 1.661 GB
{www.scenetime.com}Supernatural.S08E07.1080p.WEB-DL.DD5.1.H.264-ECI/Supernatural.S08E07.A.Little.Slice.Of.Kevin.1080p.WEB-DL.DD5.1.H.264-ECI.nfo 3.164 KB
Gathering some info...

Register and log in Isohunt and see no captcha anymore!

4000 symbols left
Hash b1dca680c889ed816fde618a3a5e485e6427cc57

Related torrents for "Supernatural S08E07 1080p WEB-DL DD5 1 H 264-ECI"

Torrent search:

episode 07 season 08 fullhd web-dl