Kamaal Dhamaal Malamaal (2012) 720p DVDRip AC3 MSubs [DDR]

Size 2.978 GB   15 seeders     Added 2012-11-17 20:40:31

Stream torrent
Starting‥ You need BitLord! Get it from BitLord.com
To download or stream you need BitLord. Visit them at BitLord.com
[center][img]image[/img]
[img]image[/img]

[b][color=PURPLE]Kamaal Dhamaal Malamaal (2012)[/color]
[color=Red]**720p DVDRip MSubs**[/color][/b]

[img]image[/img]

[b][color=Royalblue][ NFO ][/color][/b]

[code]Complete name : 720p-kdm-ddr.mkv
Ripper					 : th3obr0
Source:					 : DVD9 [DST]

Format : Matroska
Format version : Version 2
File size : 2.75 GiB
Duration : 2h 20mn
Overall bit rate : 2 808 Kbps
Encoded date : UTC 2012-11-17 07:09:55
Writing application : mkvmerge v5.6.0 ('Kenya Kane') built on May 27 2012 16:44:04
Writing library : libebml v1.2.3 + libmatroska v1.3.0

Video
ID : 1
Format : AVC
Format/Info : Advanced Video Codec
Format profile : High@L4.2
Format settings, CABAC : Yes
Format settings, ReFrames : 4 frames
Codec ID : V_MPEG4/ISO/AVC
Duration : 2h 20mn
Bit rate : 2 355 Kbps
Width : 1 280 pixels
Height : 544 pixels
Display aspect ratio : 2.35:1
Frame rate mode : Constant
Frame rate : 23.976 fps
Color space : YUV
Chroma subsampling : 4:2:0
Bit depth : 8 bits
Scan type : Progressive
Bits/(Pixel*Frame) : 0.141
Stream size : 2.26 GiB (82%)
Title : KDM 720p [DDR]
Writing library : x264 core 125 r2200 999b753
Language : Hindi
Default : Yes
Forced : No

Audio
ID : 2
Format : AC-3
Format/Info : Audio Coding 3
Mode extension : CM (complete main)
Format settings, Endianness : Big
Codec ID : A_AC3
Duration : 2h 20mn
Bit rate mode : Constant
Bit rate : 448 Kbps
Channel(s) : 6 channels
Channel positions : Front: L C R, Side: L R, LFE
Sampling rate : 48.0 KHz
Bit depth : 16 bits
Compression mode : Lossy
Delay relative to video : 50ms
Stream size : 449 MiB (16%)
Title : 5.1 AC3 [DDR]
Language : Hindi
Default : Yes
Forced : No

Text #1
ID : 3
Format : VobSub
Muxing mode : zlib
Codec ID : S_VOBSUB
Codec ID/Info : The same subtitle format used on DVDs
Title : English [DDR]
Language : English
Default : Yes
Forced : No

Text #2
ID : 4
Format : VobSub
Muxing mode : zlib
Codec ID : S_VOBSUB
Codec ID/Info : The same subtitle format used on DVDs
Title : Arabic [DDR]
Language : Arabic
Default : No
Forced : No
[/code]

[b][color=Royalblue][ SCREENS ][/color][/b]

[img]image[/img]

[img]image[/img]

[img]image[/img]

[img]image[/img]

[img]image[/img]

[img]image[/img]

[img]image[/img]

[img]image[/img]

[b][color=Royalblue][ SAMPLE ][/color][/b]

[code][12M - 00:01:00]
http://mirrorstack.com/t0hg3qs383zz
[/code]

[b][color=Royalblue][ NOTICE ][/color][/b]

1. Initial seeding is from a 100mbit line.

2. Don't be naughty! Do seed to help fellow members download this release.

3. If you have any [b][U]constructive[/U][/b] criticism feel free to PM me.

[b][color=Red]Tests Performed[/color][/b]
 - [b][color=Red]Audio In-Sync?[/color][/b] [b]O.K.[/b]
 - [b][color=Red]Subs In-Sync?[/color][/b] [b]O.K.[/b]
 - [b][color=Red]Compatibility?[/color][/b] [b]VLC and MPC[/b] - [b]O.K.[/b].
[/center]
Kamaal Dhamaal Malamaal (2012) 720p DVDRip AC3 MSubs [DDR].mkv 2.953 GB
Kamaal Dhamaal Malamaal (2012) 720p DVDRip AC3 MSubs [DDR].nfo 3.998 KB
sample/Kamaal Dhamaal Malamaal (Sample) 720p DVDRip AC3 MSubs [DDR].mkv 12.345 MB
Gathering some info...

Register and log in Isohunt and see no captcha anymore!

4000 symbols left
Hash 864BE27CAC5DD50F7F3407880EF3C8B049456A0B

Related torrents for "Kamaal Dhamaal Malamaal (2012) 720p DVDRip AC3 MSubs [DDR]"

Torrent search:

dvdrip hd 2012