Sehar (2005) 720p DVDRip x264 AC3 ESubs DDR

Size 2.706 GB   4 seeders     Added 2012-11-17 22:22:03

Stream torrent
Starting‥ You need BitLord! Get it from BitLord.com
To download or stream you need BitLord. Visit them at BitLord.com
[center][img]image[/img]

[b][color=PURPLE]Sehar (2005)[/color]
[color=Red]**720p DVDRip ESubs**[/color]
[COLOR=Green]*5.1 Surround Sound*[/COLOR][/b]

[img]image[/img]
Rated

[b][color=Royalblue][ NFO ][/color][/b]

[code]Complete name : 720p-dvdrip-sehar-ddr.mkv
Source					 : DDR
Ripper					 : th3obr0

Format : Matroska
Format version : Version 2
File size : 2.50 GiB
Duration : 2h 0mn
Overall bit rate : 2 978 Kbps
Encoded date : UTC 2012-11-12 01:14:29
Writing application : mkvmerge v5.7.0 ('The Whirlwind') built on Jul 8 2012 20:08:51
Writing library : libebml v1.2.3 + libmatroska v1.3.0

Video
ID : 1
Format : AVC
Format/Info : Advanced Video Codec
Format profile : High@L4.2
Format settings, CABAC : Yes
Format settings, ReFrames : 4 frames
Codec ID : V_MPEG4/ISO/AVC
Duration : 2h 0mn
Bit rate : 2 528 Kbps
Width : 1 280 pixels
Height : 544 pixels
Display aspect ratio : 2.35:1
Frame rate : 24.975 fps
Color space : YUV
Chroma subsampling : 4:2:0
Bit depth : 8 bits
Scan type : Progressive
Bits/(Pixel*Frame) : 0.145
Stream size : 2.07 GiB (83%)
Title : Sehar 720p [DDR]
Writing library : x264 core 125 r2200 999b753
Language : Hindi
Default : Yes
Forced : No

Audio
ID : 2
Format : AC-3
Format/Info : Audio Coding 3
Mode extension : CM (complete main)
Format settings, Endianness : Big
Codec ID : A_AC3
Duration : 2h 0mn
Bit rate mode : Constant
Bit rate : 448 Kbps
Channel(s) : 6 channels
Channel positions : Front: L C R, Side: L R, LFE
Sampling rate : 48.0 KHz
Bit depth : 16 bits
Compression mode : Lossy
Stream size : 385 MiB (15%)
Title : Hindi 5.1 [DDR]
Language : Hindi
Default : Yes
Forced : No

Text
ID : 3
Format : UTF-8
Codec ID : S_TEXT/UTF8
Codec ID/Info : UTF-8 Plain Text
Default : Yes
Forced : No[/code]

[b][color=Royalblue][ SCREENS ][/color][/b]

[img]image[/img]

[img]image[/img]

[img]image[/img]

[img]image[/img]

[img]image[/img]

[img]image[/img]

[img]image[/img]

[img]image[/img]

[img]image[/img]

[img]image[/img]

[b][color=Royalblue][ SAMPLE ][/color][/b]

[code]22M - 00:01:30]
http://upload-novalayer.com/g2th7l6x31lj.html
[/code]

[b][color=Royalblue][ NOTICE ][/color][/b]

1. Initial seeding is from a 100mbit line.

2. Don't be naughty! Do seed to help fellow members download this release.

3. If you have any [b][U]constructive[/U][/b] criticism feel free to PM me.

[b]>>[color=Red]Tests Performed[/color]
720p-dvdrip-sehar-ddr.mkv 2.683 GB
720p-dvdrip-sehar-ddr.nfo 3.276 KB
sample/smpl-720p-dvdrip-sehar-ddr.mkv 23.394 MB
Gathering some info...

Register and log in Isohunt and see no captcha anymore!

4000 symbols left
Hash 03A0A4FA0D2367FF6E498F4E0FF63D0CAE294A19