imdb
rating

8.1
Diabolique

Diabolique (1955)

Drama, Horror, Thriller

Full description
quality   dvdr x264 hd bd dvdrip fullhd

Les Diaboliques-720p MP4 AAC x264 BRRip 1955-CC

Size 2.466 GB   3 seeders     Added 2012-11-18 04:41:11

Stream torrent
Starting‥ You need BitLord! Get it from BitLord.com
10
To download or stream you need BitLord. Visit them at BitLord.com
Aka Demonen, Diabolique.
 http://www.imdb.com/title/tt0046911/

Source: Les.Diaboliques.1955.720p.BluRay.X264-PROFOUND Thanks!

Subs: Dutch, English, Greek and Spanish.

Sample and Screens included.

General
Complete name                            : Les Diaboliques-720p MP4 AAC x264 BRRip 1955-CC.mp4
Format                                   : MPEG-4
Format profile                           : Base Media
Codec ID                                 : isom
File size                                : 2.27 GiB
Duration                                 : 1h 56mn
Overall bit rate mode                    : Variable
Overall bit rate                         : 2 786 Kbps
Encoded date                             : UTC 2012-11-16 16:19:07

Video
ID                                       : 1
Format                                   : AVC
Format/Info                              : Advanced Video Codec
Format profile                           : High@L4.1
Format settings, CABAC                   : Yes
Format settings, ReFrames                : 5 frames
Codec ID                                 : avc1
Codec ID/Info                            : Advanced Video Coding
Duration                                 : 1h 56mn
Bit rate                                 : 2 625 Kbps
Maximum bit rate                         : 14.2 Mbps
Width                                    : 960 pixels
Height                                   : 720 pixels
Display aspect ratio                     : 4:3
Frame rate mode                          : Variable
Frame rate                               : 23.976 fps
Minimum frame rate                       : 23.810 fps
Maximum frame rate                       : 24.390 fps
Color space                              : YUV
Chroma subsampling                       : 4:2:0
Bit depth                                : 8 bits
Scan type                                : Progressive
Bits/(Pixel*Frame)                       : 0.158
Stream size                              : 2.14 GiB (94%)
Writing library                          : x264 core 112

Audio
ID                                       : 2
Format                                   : AAC
Format/Info                              : Advanced Audio Codec
Format profile                           : LC
Codec ID                                 : 40
Duration                                 : 1h 56mn
Bit rate mode                            : Variable
Bit rate                                 : 160 Kbps
Maximum bit rate                         : 193 Kbps
Channel(s)                               : 1 channel
Channel positions                        : Front: C
Sampling rate                            : 48.0 KHz
Compression mode                         : Lossy
Delay relative to video                  : 83ms
Stream size                              : 134 MiB (6%)
Language                                 : French

Enjoy...

Requested by DreamExtractor.

Coming soon: The Horse Whisperer, Evita, Apollo 13, The Interpreter, Jay and Silent Bob...-------------------------------------Torrent downloaded from http://thepiratebay.se
Les Diaboliques-720p MP4 AAC x264 BRRip 1955-CC/Sample/Sample.mp4 21.596 MB
Les Diaboliques-720p MP4 AAC x264 BRRip 1955-CC/Screens-Info/Les Diaboliques-720p MP4 AAC x264 BRRip 1955-CC.mp4_snapshot_01.22.38.png 616.762 KB
Les Diaboliques-720p MP4 AAC x264 BRRip 1955-CC/Screens-Info/Les Diaboliques-720p MP4 AAC x264 BRRip 1955-CC.mp4_snapshot_00.48.52.png 607.847 KB
Gathering some info...

Register and log in Isohunt and see no captcha anymore!

4000 symbols left
Hash 8148371c58ac8b07114359cc2ca1382e6834e7c4

Related torrents for "Les Diaboliques-720p MP4 AAC x264 BRRip 1955-CC"

Torrent search:

x264 1955 hd bd