The Closer

The Closer (2005)

Drama

Full description

The Higher The Heel The Closer To God

Size 554.216 MB   0 seeders     Added 2012-11-18 05:01:11

Stream torrent
Starting‥ You need BitLord! Get it from BitLord.com
To download or stream you need BitLord. Visit them at BitLord.com
.
..............................Site Info...........................

 -   http://www,scenetime,com  *_*   scenetime


Scenetime .Always on time . friendly online private torrent community ..

     We care to share . Join us on scenetime

    Be the first to get new release at scenetime

        Seed back for speed


...................................NFO:.................................................General
Complete name                            :The Higher The Heel The Closer To God2 The Higher The Heel, The Closer To God.m4v
Format                                   : MPEG-4
Codec ID                                 : M4V 
File size                                : 529 MiB
Duration                                 : 43mn 3s
Overall bit rate mode                    : Variable
Overall bit rate                         : 1 716 Kbps
Movie name                               : The Higher The Heel, The Closer To God
Album                                    : The Real Housewives of Beverly Hills, Season 3
Album/Performer                          : The Real Housewives of Beverly Hills
Part/Position                            : 1
Part/Total                               : 1
Track name/Position                      : 2
Performer                                : The Real Housewives of Beverly Hills
Genre                                    : Reality TV
Recorded date                            : UTC 2012-11-12 08:00:00
Tagged date                              : UTC 2012-11-13 23:49:45
Writing application                      : iVI (South Pole Software)
Copyright                                :  2012 Bravo Media. All Rights Reserved.
Cover                                    : Yes
tvsh                                     : The Real Housewives of Beverly Hills
tven                                     : 302
tvsn                                     : 3
tves                                     : 2
sonm                                     : The Real Housewives of Beverly Hills
soal                                     : The Real Housewives of Beverly Hills, Season 3

Video
ID                                       : 1
Format                                   : AVC
Format/Info                              : Advanced Video Codec
Format profile                           : Baseline@L3.0
Format settings, CABAC                   : No
Format settings, ReFrames                : 1 frame
Codec ID                                 : avc1
Codec ID/Info                            : Advanced Video Coding
Duration                                 : 43mn 3s
Bit rate                                 : 1 545 Kbps
Width                                    : 640 pixels
Height                                   : 480 pixels
Display aspect ratio                     : 16:9
Frame rate mode                          : Constant
Frame rate                               : 23.976 fps
Color space                              : YUV
Chroma subsampling                       : 4:2:0
Bit depth                                : 8 bits
Scan type                                : Progressive
Bits/(Pixel*Frame)                       : 0.210
Stream size                              : 476 MiB (90%)
Language                                 : English
Tagged date                              : UTC 2012-11-12 23:49:40
Color primaries                          : BT.601 NTSC
Transfer characteristics                 : BT.709
Matrix coefficients                      : BT.601

Audio
ID                                       : 2
Format                                   : AAC
Format/Info                              : Advanced Audio Codec
Format profile                           : LC
Codec ID                                 : 40
Duration                                 : 43mn 3s
Bit rate mode                            : Variable
Bit rate                                 : 165 Kbps
Maximum bit rate                         : 237 Kbps
Channel(s)                               : 2 channels
Channel positions                        : Front: L R
Sampling rate                            : 48.0 KHz
Compression mode                         : Lossy
Stream size                              : 50.9 MiB (10%)
Title                                    : Stereo
Language                                 : English
Encoded date                             : UTC 2012-11-12 23:49:39
Tagged date                              : UTC 2012-11-12 23:49:40-------------------------------------Torrent downloaded from http://thepiratebay.se
{www.scenetime.com}The Higher The Heel The Closer To God/02 The Higher The Heel, The Closer To God.m4v 554.212 MB
{www.scenetime.com}The Higher The Heel The Closer To God/Read this before playing this Video.txt 222 B
{www.scenetime.com}The Higher The Heel The Closer To God/The higherthe heels the closertogod.nfo 4.104 KB
Gathering some info...

Register and log in Isohunt and see no captcha anymore!

4000 symbols left
Hash ec8f73a7e4ab64429ec898162fc6f0315cc17dff

Related torrents for "The Higher The Heel The Closer To God"