imdb
rating

7.2
Pitch Perfect

Pitch Perfect (2012)

Comedy, Music, Romance

Full description
quality   cam dvdrip dvd telesync x264

Pitch Perfect

Size 743.283 MB   0 seeders     Added 2012-11-18 12:29:49

Stream torrent
Starting‥ You need BitLord! Get it from BitLord.com
To download or stream you need BitLord. Visit them at BitLord.com
------------------------------------------------------------------\r\n\r\nPlease share....Dont hit and run...Seed it back at least once.\r\n\r\nOf course, if you want to seed it back more than once, that would be ok too :)\r\n\r\n-------------------------------------------------------------------    \r\n\r\nQUALITY :� PERFECT 10/10\r\n\r\nAll details are here:\r\n\r\nFormat  | AVI           Language | ENGLISH  \r\n\r\nSource  | DVD PAL       Subs     | NONE\r\n\r\nQUALITY :� PERFECT 10/10\r\n\r\n- Video\r\n\r\nID :0\r\n\r\nFormat :MPEG-4 Visual\r\n\r\nFormat profile :Advanced Simple@L5\r\n\r\nFormat settings, BVOP :Yes\r\n\r\nFormat settings, QPel :No\r\n\r\nFormat settings, GMC :No warppoints\r\n\r\nFormat settings, Matrix :Default (H.263)\r\n\r\nMuxing mode :Packed bitstream\r\n\r\nCodec ID :XVID\r\n\r\nCodec ID/Hint :XviD\r\n\r\nBit rate :1 345 Kbps\r\n\r\nWidth :720 pixels\r\n\r\nHeight :314 pixels\r\n\r\nDisplay aspect ratio :2.25:1\r\n\r\nFrame rate :29.970 fps\r\n\r\nColor space :YUV\r\n\r\nChroma subsampling :4:2:0\r\n\r\nBit depth :8 bits\r\n\r\nScan type :Progressive\r\n\r\nCompression mode :Lossy\r\n\r\nBits/(Pixel*Frame) :0.198\r\n\r\nStream size :1.19 GiB (87%)\r\n\r\nWriting library :XviD 1.1.0 (UTC 2005-11-22)\r\n\r\n- Audio\r\n\r\nID :1\r\n\r\nFormat :AC-3\r\n\r\nFormat/Info :Audio Coding 3\r\n\r\nMode extension :CM (complete main)\r\n\r\nCodec ID :2000\r\n\r\nBit rate mode :Constant\r\n\r\nBit rate :192 Kbps\r\n\r\nChannel(s) :2 channels\r\n\r\nChannel positions :Front: L R\r\n\r\nSampling rate :48.0 KHz\r\n\r\nBit depth :16 bits\r\n\r\nCompression mode :Lossy\r\n\r\nStream size :175 MiB (12%)\r\n\r\nAlignment :Aligned on interleaves\r\n\r\nInterleave, duration :33 ms (1.00 video frame)\r\n\r\nInterleave, preload duration :512 ms    
Pitch Perfect/Pitch Perfect.zip 730.209 MB
Pitch Perfect/sample.avi 12.776 MB
Pitch Perfect/2 (2).jpg 85.309 KB
Gathering some info...

Register and log in Isohunt and see no captcha anymore!

4000 symbols left
Hash 925e90d73e4dc6540e5d6284ea262b48fbe24d4d

Related torrents for "Pitch Perfect"

Torrent search:

2012