The A-Team

The A-Team (1983)

Action, Adventure, Drama

Full description

PHIR EK TAHELKA 720P MP4LOTTERY TEAM ICFG} mp4

Size 1.789 GB   0 seeders     Added 2012-11-19 01:36:26

Stream torrent
Starting‥ You need BitLord! Get it from 1BitLord.com
To download or stream you need BitLord. Visit them at BitLord.com
 image
 
image
 
image
 
image
 
image
 
image

Info - 
Language : Hindi

Genre : Action

Star Cast : DARSHAN NAMITHA, ETCC

Synopsis : Janki (Namitha) is in love with the simpleton Indra (Darshan) after meeting him a couple of times. But she soon realises that he is into crime. Is he really a criminal or does he have some reason for walking on this dangerous path? Experience the thrills with this action-packed film which will also make you swing to the tunes of its romantic songs!

Media Info - 
General
Format                           : MPEG-4
Format profile                   : Base Media / Version 2
Codec ID                         : mp42
File size                        : 1.67 GiB
Duration                         : 1h 52mn
Overall bit rate                 : 2 129 Kbps
Encoded date                     : UTC 2011-12-29 05:22:18
Tagged date                      : UTC 2011-12-29 05:22:18
gsst                             : 0
gstd                             : 6721828
gssd                             : BADC23943HH1353258239341898

Video
ID                               : 1
Format                           : AVC
Format/Info                      : Advanced Video Codec
Format profile                   : High@L3.1
Format settings, CABAC           : Yes
Format settings, ReFrames        : 1 frame
Format settings, GOP             : M=1, N=60
Codec ID                         : avc1
Codec ID/Info                    : Advanced Video Coding
Duration                         : 1h 52mn
Bit rate mode                    : Variable
Bit rate                         : 1 975 Kbps
Maximum bit rate                 : 5 309 Kbps
Width                            : 1 280 pixels
Height                           : 720 pixels
Display aspect ratio             : 16:9
Frame rate mode                  : Constant
Frame rate                       : 25.000 fps
Color space                      : YUV
Chroma subsampling               : 4:2:0
Bit depth                        : 8 bits
Scan type                        : Progressive
Bits/(Pixel*Frame)               : 0.086
Stream size                      : 1.55 GiB (93%)
Tagged date                      : UTC 2011-12-29 05:25:10

Audio
ID                               : 2
Format                           : AAC
Format/Info                      : Advanced Audio Codec
Format profile                   : LC
Codec ID                         : 40
Duration                         : 1h 52mn
Bit rate mode                    : Variable
Bit rate                         : 152 Kbps
Maximum bit rate                 : 209 Kbps
Channel(s)                       : 2 channels
Channel positions                : Front: L R
Sampling rate                    : 44.1 KHz
Compression mode                 : Lossy
Stream size                      : 122 MiB (7%)
Title                            : IsoMedia File Produced by Google, 5-11-2011
Encoded date                     : UTC 2011-12-29 05:24:15
Tagged date                      : UTC 2011-12-29 05:25:10

Ripper : LOTTERY

Seeding 24x7... Extreme Seeding...


Enjoy!
		
PHIR EK TAHELKA 720P MP4{LOTTERY TEAM ICFG}.mp4 1.789 GB
Gathering some info...

Register and log in Isohunt and see no captcha anymore!

4000 symbols left
Hash C3E3D425DB9DE683C1B0C9FBA56B90EAD983E89C

Related torrents for "PHIR EK TAHELKA 720P MP4LOTTERY TEAM ICFG} mp4"

Torrent search:

hd