La Linea (2008) XviD - Italian Mp3 MIRCrew

Size 733.929 MB   18 seeders     Added 2012-11-19 22:15:57

Stream torrent
Starting‥ You need BitLord! Get it from BitLord.com
To download or stream you need BitLord. Visit them at BitLord.com
La Linea (2008) [XviD - Italian Mp3] MIRCrew [TNT Village]


 	
[b][color=red][IMG]image[/IMG]

*********************************************

[URL=http://www.imdb.it/title/tt1111918/][IMG]image[/IMG][/URL]

La Linea (2008)




[IMG]image[/IMG]

[IMG]image[/IMG]

La linea (The Line) 
diretto da James Cotten
genere azione, drammatico, poliziesco, thriller 
durata di 95 min. 
Prodotto nel 2008 in USA, Messico.

[IMG]image[/IMG]

[IMG]image[/IMG]

Ray Liotta, Andy Garcia, Esai Morales, Armand Assante, Valerie Cruz, Jordi Vilasuso, Kevin Gage, Bruce Davison, Joe Morton, Danny Trejo.


[IMG]image[/IMG]


[IMG]image[/IMG]

Mark Shields è un killer esperto. Ora è sulle tracce del misterioso Pelon, uno dei luogotenenti di Salazar, il narcotrafficante che opera tra Tijuana e la California. Pelon è in rapida ascesa, sta diventando potente e scomodo, e va 

eliminato. Il destino di Mark si incrocia con quello di Olivia, una ragazza messicana che sta combattendo una personale battaglia per vendicare la figlia........

[IMG]image[/IMG]


[IMG]image[/IMG]




[IMG]image[/IMG]

General
Complete name : La Linea (2008).avi
Format : AVI
Format/Info : Audio Video Interleave
File size : 700 MiB
Duration : 1h 31mn
Overall bit rate : 1 074 Kbps
Writing application : VirtualDubMod 1.5.10.1 (build 2439/release)
Writing library : VirtualDubMod build 2439/release

Video
ID : 0
Format : MPEG-4 Visual
Format profile : Advanced Simple@L5
Format settings, BVOP : Yes
Format settings, QPel : No
Format settings, GMC : No warppoints
Format settings, Matrix : Default (MPEG)
Codec ID : XVID
Codec ID/Hint : XviD
Duration : 1h 31mn
Bit rate : 939 Kbps
Width : 608 pixels
Height : 256 pixels
Display aspect ratio : 2.35:1
Frame rate : 25.000 fps
Color space : YUV
Chroma subsampling : 4:2:0
Bit depth : 8 bits
Scan type : Progressive
Bits/(Pixel*Frame) : 0.241
Stream size : 612 MiB (87%)
Writing library : XviD 1.2.1 (UTC 2008-12-04)

Audio
ID : 1
Format : MPEG Audio
Format version : Version 1
Format profile : Layer 3
Mode : Dual mono
Codec ID : 55
Codec ID/Hint : MP3
Duration : 1h 30mn
Bit rate mode : Variable
Bit rate : 128 Kbps
Channel(s) : 2 channels
Sampling rate : 48.0 KHz
Stream size : 79.9 MiB (11%)
Alignment : Aligned on interleaves
Interleave, duration : 24 ms (0.60 video frame)
Interleave, preload duration : 149 ms
Writing library : LAME3.96r
Encoding settings : -m d -V 4 -q 3 -lowpass 17.5 --abr 128


[/color][/b]
La Linea (2008).avi 733.929 MB
Gathering some info...

Register and log in Isohunt and see no captcha anymore!

4000 symbols left
Hash A16CFF7871F9865511BD388E8415C6558C05630D