imdb
rating

7.8
Grimm

Grimm (2011)

Drama, Fantasy, Mystery

Full description

Grimm S02E12 1080p WEB-DL DD5 1 H 264-ECI

Size 1.755 GB   0 seeders     Added 2012-11-19 23:44:14

Stream torrent
Starting‥ You need BitLord! Get it from BitLord.com
To download or stream you need BitLord. Visit them at BitLord.com
- http://www.Speed.Cd
http://www.Speed.Cd       the fast  and The Hottest Private Tracker on the net
Please Seed back to make the speed Faster!!
 ............ NFO .............
-General
Unique ID                                : 226596123902178705496622217368099642371 (0xAA78D376BC99EFF1BFF31C2CD9085C03)
Complete name                            : Grimm.S02E12.Season.Of.The.Hexenbiest.1080p.WEB-DL.DD5.1.H.264-ECI.mkv
Format                                   : Matroska
Format version                           : Version 2
File size                                : 1.63 GiB
Duration                                 : 42mn 58s
Overall bit rate                         : 5 447 Kbps
Encoded date                             : UTC 2012-11-18 18:55:06
Writing application                      : mkvmerge v5.8.0 (No Sleep / Pillow) built on Sep  2 2012 15:37:04
Writing library                          : libebml v1.2.3 + libmatroska v1.3.0
Video
ID                                       : 1
Format                                   : AVC
Format/Info                              : Advanced Video Codec
Format profile                           : High@L4.0
Format settings, CABAC                   : Yes
Format settings, ReFrames                : 4 frames
Codec ID                                 : V_MPEG4/ISO/AVC
Duration                                 : 42mn 58s
Bit rate                                 : 4 954 Kbps
Width                                    : 1 920 pixels
Height                                   : 1 080 pixels
Display aspect ratio                     : 16:9
Frame rate mode                          : Constant
Frame rate                               : 23.976 fps
Color space                              : YUV
Chroma subsampling                       : 4:2:0
Bit depth                                : 8 bits
Scan type                                : Progressive
Bits/(Pixel*Frame)                       : 0.100
Stream size                              : 1.49 GiB (91%)
Language                                 : English
Default                                  : Yes
Forced                                   : No
Color primaries                          : BT.709
Transfer characteristics                 : BT.709
Matrix coefficients                      : BT.709
Audio
ID                                       : 2
Format                                   : AC-3
Format/Info                              : Audio Coding 3
Mode extension                           : CM (complete main)
Format settings, Endianness              : Big
Codec ID                                 : A_AC3
Duration                                 : 42mn 58s
Bit rate mode                            : Constant
Bit rate                                 : 384 Kbps
Channel(s)                               : 6 channels
Channel positions                        : Front: L C R, Side: L R, LFE
Sampling rate                            : 48.0 KHz
Bit depth                                : 16 bits
Compression mode                         : Lossy
Stream size                              : 118 MiB (7%)
Language                                 : English
Default                                  : Yes
Forced                                   : No		
Grimm.S02E12.Season.Of.The.Hexenbiest.1080p.WEB-DL.DD5.1.H.264-ECI.mkv 1.755 GB
Grimm.S02E12.Season.Of.The.Hexenbiest.1080p.WEB-DL.DD5.1.H.264-ECI.nfo 3.121 KB
www.Speed.Cd read me .txt 47 B
Gathering some info...

Register and log in Isohunt and see no captcha anymore!

4000 symbols left
Hash 3C2E21F238D4653757F1897C8AFA9771039804C7

Related torrents for "Grimm S02E12 1080p WEB-DL DD5 1 H 264-ECI"

Torrent search:

season 02 episode 12 fullhd web-dl