imdb
rating

7.4
Lincoln

Lincoln (2012)

Drama, War

Full description

Lincoln 2012 DVDRip XviD-WiDE

Size 734.95 MB   0 seeders     Added 2012-11-20 08:51:31

Stream torrent
Starting‥ You need BitLord! Get it from BitLord.com
To download or stream you need BitLord. Visit them at BitLord.com
\r\n\r\n\r\n\r\n \r\nVideo\r\nID : 0\r\nFormat : MPEG-4 Visual\r\nFormat profile : Advanced Simple@L5\r\nFormat settings, BVOP : 2\r\nFormat settings, QPel : No\r\nFormat settings, GMC : No warppoints\r\nFormat settings, Matrix : Default (H.263)\r\nMuxing mode : Packed bitstream\r\nCodec ID : XVID\r\nCodec ID/Hint : XviD\r\nDuration : 1h 30mn\r\nBit rate : 1 368 Kbps\r\nWidth : 720 pixels\r\nHeight : 272 pixels\r\nDisplay aspect ratio : 2.647\r\nFrame rate : 29.970 fps\r\nColor space : YUV\r\nChroma subsampling : 4:2:0\r\nBit depth : 8 bits\r\nScan type : Progressive\r\nCompression mode : Lossy\r\nBits/(Pixel*Frame) : 0.233\r\nStream size : 886 MiB (91%)\r\nWriting library : XviD 64\r\n\r\nAudio\r\nID : 1\r\nFormat : MPEG Audio\r\nFormat version : Version 1\r\nFormat profile : Layer 3\r\nMode : Joint stereo\r\nMode extension : MS Stereo\r\nCodec ID : 55\r\nCodec ID/Hint : MP3\r\nDuration : 1h 30mn\r\nBit rate mode : Constant\r\nBit rate : 128 Kbps\r\nChannel(s) : 2 channels\r\nSampling rate : 48.0 KHz\r\nCompression mode : Lossy\r\nStream size : 82.9 MiB (8%)\r\nAlignment : Split accross interleaves\r\nInterleave, duration : 33 ms (1.00 video frame)\r\nInterleave, preload duration : 500 ms\r\n
Lincoln.2012.DVDRip.XviD-WiDE/Info.nfo 5.215 KB
Lincoln.2012.DVDRip.XviD-WiDE/Lincoln.wmv 734.789 MB
Lincoln.2012.DVDRip.XviD-WiDE/READ this before playing the Video.txt 5.748 KB
Gathering some info...

Register and log in Isohunt and see no captcha anymore!

4000 symbols left
Hash d23d9e1f80799a68a52d6bf43ff775b0136bc611

Related torrents for "Lincoln 2012 DVDRip XviD-WiDE"

Torrent search:

dvdrip 2012