imdb
rating

8.6
Boardwalk Empire

Boardwalk Empire (2010)

Crime, Drama

Full description

Boardwalk Empire S03E10 720p WEB-DL DD5 1 H 264-KiNGS

Size 1.853 GB   0 seeders     Added 2012-11-20 16:42:13

Stream torrent
Starting‥ You need BitLord! Get it from BitLord.com
To download or stream you need BitLord. Visit them at BitLord.com
- 
http://www.Speed.Cd
 
http://www.Speed.Cd       the fast  and The Hottest Private Tracker on the net

Please Seed back to make the speed Faster!!
 ............ NFO .............
-General
Unique ID                                : 178827459291248703903462783731487559894 (0x8688EA76A34CB920A0195A4A4E4150D6)
Complete name                            : D:iTunesTV ShowsBoardwalk EmpireBoardwalk.Empire.S03E10.720p.WEB-DL.DD5.1.H.264-KiNGSBoardwalk.Empire.S03E10.720p.WEB-DL.DD5.1.H.264-KiNGS.mkv
Format                                   : Matroska
Format version                           : Version 2
File size                                : 1.73 GiB
Duration                                 : 57mn 25s
Overall bit rate                         : 4 302 Kbps
Encoded date                             : UTC 2012-11-19 22:59:00
Writing application                      : mkvmerge v5.8.0 ('No Sleep / Pillow') built on Sep  2 2012 15:37:04
Writing library                          : libebml v1.2.3 + libmatroska v1.3.0

Video
ID                                       : 1
Format                                   : AVC
Format/Info                              : Advanced Video Codec
Format profile                           : High@L3.1
Format settings, CABAC                   : No
Format settings, ReFrames                : 2 frames
Format settings, GOP                     : N=1
Codec ID                                 : V_MPEG4/ISO/AVC
Duration                                 : 57mn 25s
Bit rate                                 : 3 833 Kbps
Width                                    : 1 280 pixels
Height                                   : 720 pixels
Display aspect ratio                     : 16:9
Frame rate mode                          : Constant
Frame rate                               : 23.976 fps
Color space                              : YUV
Chroma subsampling                       : 4:2:0
Bit depth                                : 8 bits
Scan type                                : Progressive
Bits/(Pixel*Frame)                       : 0.173
Stream size                              : 1.54 GiB (89%)
Language                                 : English
Default                                  : Yes
Forced                                   : No
Color primaries                          : BT.709
Transfer characteristics                 : BT.709
Matrix coefficients                      : BT.709

Audio
ID                                       : 2
Format                                   : AC-3
Format/Info                              : Audio Coding 3
Mode extension                           : CM (complete main)
Format settings, Endianness              : Big
Codec ID                                 : A_AC3
Duration                                 : 57mn 25s
Bit rate mode                            : Constant
Bit rate                                 : 384 Kbps
Channel(s)                               : 6 channels
Channel positions                        : Front: L C R, Side: L R, LFE
Sampling rate                            : 48.0 KHz
Bit depth                                : 16 bits
Compression mode                         : Lossy
Stream size                              : 158 MiB (9%)
Language                                 : English
Default                                  : Yes
Forced                                   : No		
[ www.Speed.Cd ] - Boardwalk.Empire.S03E10.720p.WEB-DL.DD5.1.H.264-KiNGS/Boardwalk.Empire.S03E10.720p.WEB-DL.DD5.1.H.264-KiNGS.mkv 1.853 GB
[ www.Speed.Cd ] - Boardwalk.Empire.S03E10.720p.WEB-DL.DD5.1.H.264-KiNGS/Boardwalk.Empire.S03E10.720p.WEB-DL.DD5.1.H.264-KiNGS.nfo 3.243 KB
[ www.Speed.Cd ] - Boardwalk.Empire.S03E10.720p.WEB-DL.DD5.1.H.264-KiNGS/www.Speed.Cd read me .txt 47 B
Gathering some info...

Register and log in Isohunt and see no captcha anymore!

4000 symbols left
Hash 2630da5d73be0298750827ba3a98a8081ed45431

Related torrents for "Boardwalk Empire S03E10 720p WEB-DL DD5 1 H 264-KiNGS"

Torrent search:

season 03 episode 10 hd web-dl