imdb
rating

5.6
Why Stop Now?

Why Stop Now? (2012)

Comedy, Drama

Full description
quality   hd dvdrip

Why Stop Now 2012 LIMITED BRRip x264 AAC-UNiQUE

Size 741.17 MB   0 seeders     Added 2012-11-20 18:20:34

Stream torrent
Starting‥ You need BitLord! Get it from 1BitLord.com
To download or stream you need BitLord. Visit them at BitLord.com
[img]image[/img]


ooooo ooo ooooo ooo o8o .oooooo. ooooo ooo oooooooooooo
`888' `8' `888b. `8' `"' d8P' `Y8b `888' `8' `888' `8
888 8 8 `88b. 8 oooo 888 888 888 8 888
888 8 8 `88b. 8 `888 888 888 888 8 888oooo8
888 8 8 `88b.8 888 888 888 888 8 888 "
`88. .8' 8 `888 888 `88b d88b `88. .8' 888 o
`YbodP' o8o `8 o888o `Y8bood8P'Ybd' `YbodP' o888ooooood8


.........why be the same as everyone else when YOU can be UNiQUE.........



General
Complete name : Why Stop Now 2012 LIMITED BRRip x264 AAC-UNiQUE.mp4
Format : MPEG-4
Format profile : Base Media
Codec ID : isom
File size : 700 MiB
Duration : 1h 27mn
Overall bit rate mode : Variable
Overall bit rate : 1 112 Kbps
Encoded date : UTC 2012-11-20 09:30:41

Video
ID : 1
Format : AVC
Format/Info : Advanced Video Codec
Format profile : High@L4.1
Format settings, CABAC : Yes
Format settings, ReFrames : 3 frames
Codec ID : avc1
Codec ID/Info : Advanced Video Coding
Duration : 1h 27mn
Bit rate mode : Variable
Bit rate : 788 Kbps
Maximum bit rate : 40.0 Mbps
Width : 720 pixels
Height : 304 pixels
Display aspect ratio : 2.35:1
Frame rate mode : Constant
Frame rate : 23.976 fps
Color space : YUV
Chroma subsampling : 4:2:0
Bit depth : 8 bits
Scan type : Progressive
Bits/(Pixel*Frame) : 0.150
Stream size : 496 MiB (71%)
Writing library : x264 core 129 r2230 1cffe9f

Audio
ID : 2
Format : AAC
Format/Info : Advanced Audio Codec
Format profile : LC
Codec ID : 40
Duration : 1h 27mn
Bit rate mode : Variable
Bit rate : 321 Kbps
Maximum bit rate : 387 Kbps
Channel(s) : 6 channels
Channel positions : Front: L C R, Side: L R, LFE
Sampling rate : 48.0 KHz
Compression mode : Lossy
Stream size : 202 MiB (29%)
Language : English
Encoded date : UTC 2012-11-20 09:31:09

Subtitles : Hardcoded English on source for foreign parts only.

Source : LIMITED.720p.BluRay.x264-SPARKS - Thanks!

Storyline
When a college piano prodigy tries to check his mother into rehab, he is taken hostage by her drug dealer and swept along on a wild adventure.



[img]image[/img]
[img]image[/img]
[img]image[/img]
[img]image[/img]
Torrent Downloaded From ExtraTorrent.com.txt 339 B
Why Stop Now 2012 LIMITED BRRip x264 AAC-UNiQUE.mp4 734.003 MB
sample.mp4 7.167 MB
Gathering some info...

Register and log in Isohunt and see no captcha anymore!

4000 symbols left
Hash ED59AE830F0702A636B3D3BF386C1D274A3A5DC6

Related torrents for "Why Stop Now 2012 LIMITED BRRip x264 AAC-UNiQUE"

Torrent search:

x264 2012 bd