La verità secondo Satana (1972) [XviD - Italian Mp3] Horror MIRCrew [TNT Village]

Size 734.001 MB   22 seeders     Added 2012-11-20 21:40:20

Stream torrent
Starting‥ You need BitLord! Get it from BitLord.com
To download or stream you need BitLord. Visit them at BitLord.com
La verità secondo Satana (1972) [XviD - Italian Mp3] Horror MIRCrew [TNT Village]



[b][color=#993300][IMG]image[/IMG]


*********************************************

[URL=http://www.imdb.com/title/tt0135035/][IMG]image[/IMG][/URL] 


La Verita' Secondo Satana (1972)


[IMG]image[/IMG]

Titolo originale 	La verità secondo Satana
Lingua originale 	italiano
Paese di produzione 	Italia
Anno 	1972
Durata 	85 min
Genere 	horror
Regia 	Renato Polselli
Produttore 	Renato Polselli
Casa di produzione 	G.R.P. Cinematografica
Fotografia 	Ugo Brunelli
Montaggio 	Otello Colangeli
Musiche 	Gianfranco Di Stefano

[IMG]image[/IMG]

[IMG]image[/IMG]

 Sergio Ammirata: Tortoletto
 Marie-Paule Bastin: Yanita
 Marcello Bonini Olas: Prete
 Rita Calderoni: Diana
 Gino Donato:
 Stefano Oppedisano: Stefano
 Lorenzo Piani:
 Isarco Ravaioli: Roibert
 Antonio Zambito:

[IMG]image[/IMG]

[IMG]image[/IMG]




[IMG]image[/IMG]

[IMG]image[/IMG]

Il giovane Roibert insegue, col suo amore, Diana Altoborghi, ma la donna promette e sfugge; falsa, bugiarda, ipocrita, spergiura. Dopo vari inutili tentativi, l'improvviso sopraggiungere della donna nell'abitazione di Roibert spinge 

costui a un suicidio. Diana è ossessionata di essere un'assassina. Un giovane, Tortoletto, ha visto tutto dalla finestra, e la sua presenza volge la vicenda ora in farsa, ora in pseudo spunti sociali contro le classi privilegiate. 

Compare anche una donna di colore, Lionita, succuba di Diana, che poi si ribella e la frusta............

[IMG]image[/IMG]

[IMG]image[/IMG]

General
Complete name : La Verita' Secondo Satana (1972).avi
Format : AVI
Format/Info : Audio Video Interleave
File size : 700 MiB
Duration : 1h 24mn
Overall bit rate : 1 156 Kbps
Writing application : VirtualDubMod 1.5.4.1 (build 2178/release)
Writing library : VirtualDubMod build 2178/release

Video
ID : 0
Format : MPEG-4 Visual
Format profile : Advanced Simple@L5
Format settings, BVOP : Yes
Format settings, QPel : No
Format settings, GMC : No warppoints
Format settings, Matrix : Custom
Codec ID : XVID
Codec ID/Hint : XviD
Duration : 1h 24mn
Bit rate : 1 053 Kbps
Width : 560 pixels
Height : 336 pixels
Display aspect ratio : 1.667
Frame rate : 25.000 fps
Color space : YUV
Chroma subsampling : 4:2:0
Bit depth : 8 bits
Scan type : Progressive
Bits/(Pixel*Frame) : 0.224
Stream size : 637 MiB (91%)
Writing library : XviD 1.2.0.dev47 (UTC 2006-11-01)

Audio
ID : 1
Format : MPEG Audio
Format version : Version 1
Format profile : Layer 3
Mode : Joint stereo
Mode extension : MS Stereo
Codec ID : 55
Codec ID/Hint : MP3
Duration : 1h 24mn
Bit rate mode : Constant
Bit rate : 96.0 Kbps
Channel(s) : 2 channels
Sampling rate : 32.0 KHz
Stream size : 58.1 MiB (8%)
Alignment : Aligned on interleaves
Interleave, duration : 80 ms (2.00 video frames)
Interleave, preload duration : 504 ms
Writing library : LAME3.97 
Encoding settings : -m j -V 4 -q 2 -lowpass 15.1 -b 96



[IMG]image[/IMG]


[/color][/b]
La Verita' Secondo Satana (1972).avi 734.001 MB
Gathering some info...

Register and log in Isohunt and see no captcha anymore!

4000 symbols left
Hash 53747FBF119B29F946820F1B6A12871F8B280DC4