X-play Ultimate Buyers Guide 2012 x264 OzQuant

Size 303.727 MB   2 seeders     Added 2012-11-20 23:20:44

Stream torrent
Starting‚Ä• You need BitLord! Get it from BitLord.com
To download or stream you need BitLord. Visit them at BitLord.com
[size=200]Episode Info[/size]
Once again, it's time to start casting thoughts toward gifts for the entertainment fan in your life. What should you pick up to satisfy their holiday cravings, or what do you demand from others who will be buying gifts for you? Well, here at G4, we'll walk you through all of the games, gadgets, and accessories you might want this season. We call it the Ultimate Buyers Guide, and you'll call it indispensable. So let Morgan Webb, Blair Herter, and Kristin Adams guide you through the glut of products fighting for your holiday dollars and point you to the best of the best, whether it be for Xbox, PS3, Wii, mobile, PC, tech, or any of your peripheral needs.
[size=200]File Info[/size]
Format : MPEG-4
Format profile : Base Media / Version 2
Codec ID : mp42
File size : 290 MiB
Duration : 41mn 47s
Overall bit rate mode : Variable
Overall bit rate : 969 Kbps
[size=200]Video[/size]
ID : 1
Format : AVC
Format/Info : Advanced Video Codec
Format profile : Main@L3.0
Format settings, CABAC : Yes
Format settings, ReFrames : 4 frames
Codec ID : avc1
Codec ID/Info : Advanced Video Coding
Duration : 41mn 47s
Bit rate mode : Variable
Bit rate : 901 Kbps
Width : 528 pixels
Height : 416 pixels
Display aspect ratio : 16:9
Frame rate mode : Variable
Frame rate : 25.000 fps
Minimum frame rate : 12.500 fps
Maximum frame rate : 25.000 fps
Color space : YUV
Chroma subsampling : 4:2:0
Bit depth : 8 bits
Scan type : Progressive
Bits/(Pixel*Frame) : 0.164
Stream size : 269 MiB (93%)
Writing library : x264 core 112
[size=200]Audio[/size]
ID : 2
Format : AAC
Format/Info : Advanced Audio Codec
Format profile : LC
Codec ID : 40
Duration : 41mn 47s
Bit rate mode : Variable
Bit rate : 64.0 Kbps
Maximum bit rate : 94.0 Kbps
Channel(s) : 2 channels
Channel positions : Front: L R
Sampling rate : 32.0 KHz
Compression mode : Lossy
Stream size : 19.1 MiB (7%)
X-play.Ultimate.Buyers.Guide.2012.x264.OzQuant.mp4 303.727 MB
Gathering some info...

Register and log in Isohunt and see no captcha anymore!

4000 symbols left
Hash 9C0FCD1B1B6176655BF32E71B58B8FFAB8363668