imdb
rating

5.5
Pusher

Pusher (2012)

Thriller

Full description

Pusher 2012 BRrip English Skandale

Size 1.556 GB   0 seeders     Added 2012-11-21 18:00:28

Stream torrent
Starting‥ You need BitLord! Get it from BitLord.com
To download or stream you need BitLord. Visit them at BitLord.com
[IMG]image[/IMG]
met Richard Coyle, Bronson Webb en Agyness Deyn

Een Londense drugssmokkelaar raakt diep in de schulden na een portie pech en een aantal foute keuzes. Hoe wanhopiger hij wordt, des te meer geïsoleerd hij raakt. Al snel is er niks meer wat hem beschermt tegen de negen millimeter kogel die zijn schuldeisers maar al te graag door zijn schedel willen knallen.

n London, a street dealer's life spins out of control over the course of one week after he borrows money from his supplier on what's supposed to be a sure thing.

http://www.imdb.com/title/tt1921070/

General
Complete name : Pusher 2012.avi
Format : AVI
Format/Info : Audio Video Interleave
File size : 1.45 GiB
Duration : 1h 28mn
Overall bit rate : 2 336 Kbps

Video
ID : 0
Format : MPEG-4 Visual
Format profile : Simple@L3
Format settings, BVOP : No
Format settings, QPel : No
Format settings, GMC : No warppoints
Format settings, Matrix : Default (H.263)
Codec ID : XVID
Codec ID/Hint : XviD
Duration : 1h 28mn
Bit rate : 1 877 Kbps
Width : 720 pixels
Height : 304 pixels
Display aspect ratio : 2.35:1
Frame rate : 25.000 fps
Color space : YUV
Chroma subsampling : 4:2:0
Bit depth : 8 bits
Scan type : Progressive
Bits/(Pixel*Frame) : 0.343
Stream size : 1.16 GiB (80%)
Writing library : XviD 1.1.2 (UTC 2006-11-01)

Audio
ID : 1
Format : AC-3
Format/Info : Audio Coding 3
Mode extension : CM (complete main)
Codec ID : 2000
Duration : 1h 28mn
Bit rate mode : Constant
Bit rate : 448 Kbps
Channel(s) : 6 channels
Channel positions : Front: L C R, Side: L R, LFE
Sampling rate : 48.0 KHz
Stream size : 285 MiB (19%)
Alignment : Aligned on interleaves
Interleave, duration : 32 ms (0.80 video frame)
Interleave, preload duration : 1056 ms
Cover/images (1).jpg 10.837 KB
flyer.jpg 33.678 KB
New Dutch Site.txt 117 B
Gathering some info...

Register and log in Isohunt and see no captcha anymore!

4000 symbols left
Hash C4C10449D23F66DE38071C0BB4D02C3B333C9431

Related torrents for "Pusher 2012 BRrip English Skandale"

Torrent search:

english 2012 bd