le sang a la tete gabin audiard avi

Size 734.056 MB   0 seeders     Added 2012-11-21 19:35:13

Stream torrent
Starting‥ You need BitLord! Get it from 1BitLord.com
To download or stream you need BitLord. Visit them at BitLord.com
FrancaisAudiardle sang a la tete gabin audiard.avi
Format                                   : AVI
Format/Info                              : Audio Video Interleave
File size                                : 700 MiB
Duration                                 : 1h 21mn
Overall bit rate mode                    : Variable
Overall bit rate                         : 1 204 Kbps
Writing application                      : VirtualDubMod 1.5.1.1a (build 1639/release)
Writing library                          : VirtualDubMod build 1639/release

Video
ID                                       : 0
Format                                   : MPEG-4 Visual
Format settings, BVOP                    : 1
Format settings, QPel                    : No
Format settings, GMC                     : No warppoints
Format settings, Matrix                  : Default (H.263)
Muxing mode                              : Packed bitstream
Codec ID                                 : DX50
Codec ID/Hint                            : DivX 5
Duration                                 : 1h 21mn
Bit rate                                 : 1 102 Kbps
Width                                    : 352 pixels
Height                                   : 240 pixels
Display aspect ratio                     : 3:2
Frame rate                               : 25.000 fps
Standard                                 : NTSC
Color space                              : YUV
Chroma subsampling                       : 4:2:0
Bit depth                                : 8 bits
Scan type                                : Progressive
Compression mode                         : Lossy
Bits/(Pixel*Frame)                       : 0.522
Stream size                              : 641 MiB (92%)
Writing library                          : DivX 5.0.5 (UTC 2003-04-24)

Audio
ID                                       : 1
Format                                   : MPEG Audio
Format version                           : Version 1
Format profile                           : Layer 3
Mode                                     : Joint stereo
Mode extension                           : MS Stereo
Codec ID                                 : 55
Codec ID/Hint                            : MP3
Duration                                 : 1h 21mn
Bit rate mode                            : Variable
Bit rate                                 : 88.7 Kbps
Nominal bit rate                         : 128 Kbps
Channel(s)                               : 2 channels
Sampling rate                            : 44.1 KHz
Compression mode                         : Lossy
Stream size                              : 51.6 MiB (7%)
Alignment                                : Aligned on interleaves
Interleave, duration                     : 26 ms (0.65 video frame)
Interleave, preload duration             : 508 ms
Writing library                          : LAME3.93 
Encoding settings                        : -m j -V 0 -q 2 -lowpass 15.4 --abr 128
		
le sang a la tete gabin audiard.avi 734.056 MB
Gathering some info...

Register and log in Isohunt and see no captcha anymore!

4000 symbols left
Hash 671918824352DF351F4A9822F8CFBBEA04386022