The Sale

The Sale (2014)

Drama, Family

Full description
quality   dvdrip

M Audiard-San Antonio-Sale temps pour les mouches avi

Size 655.084 MB   1 seeders     Added 2012-11-21 19:35:55

Stream torrent
Starting‥ You need BitLord! Get it from 1BitLord.com
To download or stream you need BitLord. Visit them at BitLord.com
FrancaisAudiardM.Audiard-San.Antonio-Sale.temps.pour.les.mouches.avi
Format                                   : AVI
Format/Info                              : Audio Video Interleave
File size                                : 625 MiB
Duration                                 : 1h 28mn
Overall bit rate                         : 983 Kbps

Video
ID                                       : 0
Format                                   : MPEG-4 Visual
Format settings, BVOP                    : No
Format settings, QPel                    : No
Format settings, GMC                     : No warppoints
Format settings, Matrix                  : Default (H.263)
Codec ID                                 : DX50
Codec ID/Hint                            : DivX 5
Duration                                 : 1h 28mn
Bit rate                                 : 845 Kbps
Width                                    : 576 pixels
Height                                   : 320 pixels
Display aspect ratio                     : 16:9
Frame rate                               : 25.000 fps
Color space                              : YUV
Chroma subsampling                       : 4:2:0
Bit depth                                : 8 bits
Scan type                                : Progressive
Compression mode                         : Lossy
Bits/(Pixel*Frame)                       : 0.183
Stream size                              : 537 MiB (86%)
Title                                    : mpeg2avi {IDCT32MMX} '-q1'
Writing library                          : DivX 5.1.1 (Maupiti) (UTC 2003-11-19)

Audio
ID                                       : 1
Format                                   : MPEG Audio
Format version                           : Version 1
Format profile                           : Layer 3
Mode                                     : Joint stereo
Mode extension                           : MS Stereo
Codec ID                                 : 55
Codec ID/Hint                            : MP3
Duration                                 : 1h 28mn
Bit rate mode                            : Constant
Bit rate                                 : 128 Kbps
Channel(s)                               : 2 channels
Sampling rate                            : 44.1 KHz
Compression mode                         : Lossy
Stream size                              : 81.3 MiB (13%)
Alignment                                : Split accross interleaves
Interleave, duration                     : 40 ms (1.00 video frame)
Interleave, preload duration             : 79 ms
Writing library                          : LAME3.92 
Encoding settings                        : -m j -V 4 -q 2 -lowpass 15.4 -b 128
		
M.Audiard-San.Antonio-Sale.temps.pour.les.mouches.avi 655.084 MB
Gathering some info...

Register and log in Isohunt and see no captcha anymore!

4000 symbols left
Hash 4DC3BE50FB22BC37BE7C1D2896D271CF3C2AE1BB

Related torrents for "M Audiard-San Antonio-Sale temps pour les mouches avi"