Barbara Hershey_Tavis_Smiley_720p.HDTV.x264_2012-11-19_TTL

Size 260.16 MB   0 seeders     Added 2012-11-21 21:42:40

Stream torrent
Starting‚Ä• You need BitLord! Get it from BitLord.com
To download or stream you need BitLord. Visit them at BitLord.com
Enjoy and please share.										

												

												

TTLTTLTTLTTLTTLTTLTTLTTLTTLTTLTTLTTLTTLTTLTTLTTL						

												

												

												

Barbara Hershey_Tavis_Smiley_720p.HDTV.x264_2012-11-19_TTL.mkv
Format                           : Matroska
File size                        : 248 MiB
Duration                         : 12mn 5s
Overall bit rate                 : 2 870 Kbps
Writing application              : HandBrake 0.9.5
Writing library                  : libmkv 0.6.4.1

Video
ID                               : 1
Format                           : AVC
Format/Info                      : Advanced Video Codec
Format profile                   : High@L3.1
Format settings, CABAC           : Yes
Format settings, ReFrames        : 4 frames
Muxing mode                      : Container profile=Unknown@3.1
Codec ID                         : V_MPEG4/ISO/AVC
Duration                         : 12mn 4s
Bit rate                         : 2 589 Kbps
Nominal bit rate                 : 2 640 Kbps
Width                            : 1 280 pixels
Height                           : 720 pixels
Display aspect ratio             : 16:9
Frame rate mode                  : Variable
Frame rate                       : 29.970 fps
Resolution                       : 8 bits
Colorimetry                      : 4:2:0
Scan type                        : Progressive
Bits/(Pixel*Frame)               : 0.094
Stream size                      : 224 MiB (90%)
Writing library                  : x264 core 112

Audio                            : English
ID                               : 2
Format                           : AC-3
Format/Info                      : Audio Coding 3
Codec ID                         : A_AC3
Duration                         : 12mn 5s
Bit rate mode                    : Constant
Bit rate                         : 224 Kbps
Channel(s)                       : 2 channels
Channel positions                : L R
Sampling rate                    : 48.0 KHz
Stream size                      : 19.4 MiB (8%)

		
Barbara Hershey_Tavis_Smiley_720p.HDTV.x264_2012-11-19_TTL.mkv 260.16 MB
Gathering some info...

Register and log in Isohunt and see no captcha anymore!

4000 symbols left
Hash 79938A5C6B1AA94CC1DB1C46A8E8749B738FA56E