Kamaal Dhamaal Malamaal (2012) DVDRip XviD AC3 MSubs [DDR]

Size 1.582 GB   4 seeders     Added 2012-11-22 04:00:25

Stream torrent
Starting‥ You need BitLord! Get it from 1BitLord.com
To download or stream you need BitLord. Visit them at BitLord.com
[center][img]image[/img]

[b][color=PURPLE]Kamaal Dhamaal Malamaal (2012)[/color]
[color=Red]**DVDRip XviD AC3**[/color][/b]

[img]image[/img]

[b][color=Royalblue][ NFO ][/color][/b]

[code]Complete name : dvdrip-kdm-ddr.avi
Ripper					 : th3obr0
Source:					 : DVD9 [DST]

Format : AVI
Format/Info : Audio Video Interleave
File size : 1.45 GiB
Duration : 2h 20mn
Overall bit rate : 1 480 Kbps
Writing application : VirtualDubMod 1.5.10.2 (build 2540/release)
Writing library : VirtualDubMod build 2540/release

Video
ID : 0
Format : MPEG-4 Visual
Format profile : Advanced Simple@L5
Format settings, BVOP : 2
Format settings, QPel : No
Format settings, GMC : No warppoints
Format settings, Matrix : Default (MPEG)
Codec ID : XVID
Codec ID/Hint : XviD
Duration : 2h 20mn
Bit rate : 1 022 Kbps
Width : 720 pixels
Height : 304 pixels
Display aspect ratio : 2.35:1
Frame rate : 23.976 fps
Color space : YUV
Chroma subsampling : 4:2:0
Bit depth : 8 bits
Scan type : Progressive
Compression mode : Lossy
Bits/(Pixel*Frame) : 0.195
Stream size : 1.00 GiB (69%)
Writing library : XviD 1.2.1 (UTC 2008-12-04)

Audio
ID : 1
Format : AC-3
Format/Info : Audio Coding 3
Mode extension : CM (complete main)
Format settings, Endianness : Big
Codec ID : 2000
Duration : 2h 20mn
Bit rate mode : Constant
Bit rate : 448 Kbps
Channel(s) : 6 channels
Channel positions : Front: L C R, Side: L R, LFE
Sampling rate : 48.0 KHz
Bit depth : 16 bits
Compression mode : Lossy
Stream size : 449 MiB (30%)
Alignment : Split accross interleaves
Interleave, duration : 42 ms (1.00 video frame)
Interleave, preload duration : 500 ms[/code]

[b][color=Royalblue][ SCREENS ][/color][/b]

[img]image[/img]

[img]image[/img]

[img]image[/img]

[img]image[/img]

[img]image[/img]

[img]image[/img]

[img]image[/img]

[img]image[/img]

[b][size=5][color=Royalblue][ SAMPLE ][/color][/b]

[code][12M - 00:01:00]
http://upload-novalayer.com/pcit2ltaid3u.html
[/code]

[b][color=Royalblue][ NOTICE ][/color][/b]

1. Initial seeding is from a 100mbit line.

2. Don't be naughty! Do seed to help fellow members download this release.

3. If you have any [b][U]constructive[/U][/b] criticism feel free to PM me.

[b]>>[color=Red]Tests Performed[/color]
dvdrip-kdm-ddr.avi 1.556 GB
dvdrip-kdm-ddr.nfo 2.806 KB
sample/smpl-dvdrip-kdm-ddr.avi 12.722 MB
Gathering some info...

Register and log in Isohunt and see no captcha anymore!

4000 symbols left
Hash 72CA1AF254D39CFE39D72569CE88BEE39184DD39

Related torrents for "Kamaal Dhamaal Malamaal (2012) DVDRip XviD AC3 MSubs [DDR]"

Torrent search:

dvdrip 2012