imdb
rating

7.0
Ted

Ted (2012)

Comedy, Fantasy

Full description
quality   dvdrip bd dvd x264 cam hd

Ted.2012.DvDrip.Xvid.Mp3.DoN

Size 734.557 MB   24 seeders     Added 2012-11-22 05:20:57

To download or stream you need BitLord. Visit them at BitLord.com
[img]image[/img]
[img]image[/img]

General
Complete name : C:UsersUPLOADSfilesTed.DvDrip.XvidTed.DvdRip.Xvid.Mp3.DoN.avi
Format : AVI
Format/Info : Audio Video Interleave
File size : 701 MiB
Duration : 1h 41mn
Overall bit rate : 963 Kbps
Writing library : VirtualDub build 32842/release

Video
ID : 0
Format : MPEG-4 Visual
Format profile : Advanced Simple@L5
Format settings, BVOP : 1
Format settings, QPel : No
Format settings, GMC : No warppoints
Format settings, Matrix : Custom
Codec ID : XVID
Codec ID/Hint : XviD
Duration : 1h 41mn
Bit rate : 841 Kbps
Width : 720 pixels
Height : 384 pixels
Display aspect ratio : 1.85:1
Frame rate : 25.000 fps
Color space : YUV
Chroma subsampling : 4:2:0
Bit depth : 8 bits
Scan type : Progressive
Compression mode : Lossy
Bits/(Pixel*Frame) : 0.122
Stream size : 612 MiB (87%)
Writing library : XviD 64

Audio
ID : 1
Format : MPEG Audio
Format version : Version 1
Format profile : Layer 3
Mode : Joint stereo
Mode extension : MS Stereo
Codec ID : 55
Codec ID/Hint : MP3
Duration : 1h 41mn
Bit rate mode : Constant
Bit rate : 112 Kbps
Channel(s) : 2 channels
Sampling rate : 48.0 KHz
Compression mode : Lossy
Stream size : 81.5 MiB (12%)
Alignment : Split accross interleaves
Interleave, duration : 40 ms (1.00 video frame)
Interleave, preload duration : 500 ms
Writing library : LAME3.98r
Encoding settings : -m j -V 4 -q 3 -lowpass 15.6 -b 112

source--Ted.2012.MULTiSUBS.PAL.DVDR-DVDMANiA

[img]https://lh3.googleusercontent.com/-LOU0zz_KlJ4/UIAY7FWWAaI/AAAAAAAAD_o/8KOTjAnFqjU/s800/DON_RG.png[/img]
Ted.2012.DvdRip.Xvid.Mp3.DoN.avi 734.551 MB
Ted.DvdRip.Xvid.Mp3.DoN.avi.txt 5.606 KB
Gathering some info...

Register and log in Isohunt and see no captcha anymore!

4000 symbols left
Hash 2A18D04164F8D33581CE66104BD58B2DE3887BB9

Related torrents for "Ted.2012.DvDrip.Xvid.Mp3.DoN"

Torrent search:

dvdrip 2012