Stolichani v poveche

Stolichani v poveche

Drama

Full description

Stolichani v poveche - Season 4 - Episode 10 mp4

Size 335.779 MB   2 seeders     Added 2012-11-22 06:36:04

Stream torrent
Starting‥ You need BitLord! Get it from 1BitLord.com
To download or stream you need BitLord. Visit them at BitLord.com
Input #0, mov,mp4,m4a,3gp,3g2,mj2, from Stolichani v poveche - Season 4 - Episode 10.mp4:
  Metadata:
    major_brand     : mp42
    minor_version   : 0
    compatible_brands: mp42isomavc1
    creation_time   : 2012-11-21 21:56:00
    encoder         : HandBrake 5044svn 2012110601
  Duration: 00:46:13.22, start: 0.000000, bitrate: 968 kb/s
    Stream #0:0(und): Video: h264 (Main) (avc1 / 0x31637661), yuv420p, 720x576 [SAR 16:11 DAR 20:11], 872 kb/s, 25 fps, 25 tbr, 90k tbn, 180k tbc
    Metadata:
      creation_time   : 2012-11-21 21:56:00
    Stream #0:1(und): Audio: aac (mp4a / 0x6134706D), 48000 Hz, stereo, s16, 90 kb/s
    Metadata:
      creation_time   : 2012-11-21 21:56:00-------------------------------------Torrent downloaded from http://thepiratebay.se
Stolichani v poveche - Season 4 - Episode 10.mp4 335.779 MB
Gathering some info...

Register and log in Isohunt and see no captcha anymore!

4000 symbols left
Hash A8D80501CAD3BCC87B5E5D6A1A51B1B9CE478B55

Related torrents for "Stolichani v poveche - Season 4 - Episode 10 mp4"

Torrent search:

season 04