Et.Si.On.Vivait.Tous.Ensemble.2011.BRRip.AC3.HORiZON-ArtSubs

Size 1.573 GB   40 seeders     Added 2012-11-22 15:53:24

Stream torrent
Starting‥ You need BitLord! Get it from BitLord.com
To download or stream you need BitLord. Visit them at BitLord.com
Title: Et si on vivait tous ensemble? aka All Together

Plot: Annie, Jean, Claude, Albert and Jeanne have been friends for over forty years. But they are growing old and old age tends to be synonymous with reduced autonomy, loss of memory, illness, retirement home and, worst of all, separation. One day, one of the five friends suggests to say no to isolation and loneliness: what if they lived together?

Audio: French

IMDB: http://www.imdb.com/title/tt1674057/


General
Complete name : Et.Si.On.Vivait.Tous.Ensemble.2011.BRRip.AC3.HORiZON-ArtSubs
Format : AVI
Format/Info : Audio Video Interleave
File size : 1.47 GiB
Duration : 1h 35mn
Overall bit rate : 2 189 Kbps
Writing application : FairUse Wizard - http://fairusewizard.com
Writing library : The best and REALLY easy backup tool

Video
ID : 0
Format : MPEG-4 Visual
Format profile : Advanced Simple@L5
Format settings, BVOP : Yes
Format settings, QPel : No
Format settings, GMC : No warppoints
Format settings, Matrix : Default (H.263)
Muxing mode : Packed bitstream
Codec ID : XVID
Codec ID/Hint : XviD
Duration : 1h 35mn
Bit rate : 1 731 Kbps
Width : 688 pixels
Height : 368 pixels
Display aspect ratio : 1.870
Frame rate : 23.976 fps
Color space : YUV
Chroma subsampling : 4:2:0
Bit depth : 8 bits
Scan type : Progressive
Compression mode : Lossy
Bits/(Pixel*Frame) : 0.285
Stream size : 1.16 GiB (79%)
Writing library : XviD 1.1.0 (UTC 2005-11-22)

Audio
ID : 1
Format : AC-3
Format/Info : Audio Coding 3
Mode extension : CM (complete main)
Codec ID : 2000
Duration : 1h 35mn
Bit rate mode : Constant
Bit rate : 448 Kbps
Channel(s) : 6 channels
Channel positions : Front: L C R, Side: L R, LFE
Sampling rate : 48.0 KHz
Bit depth : 16 bits
Compression mode : Lossy
Stream size : 307 MiB (20%)
Alignment : Split accross interleaves
Interleave, duration : 42 ms (1.00 video frame)
Interleave, preload duration : 500 ms
		
Et.Si.On.Vivait.Tous.Ensemble.2011.BRRip.AC3.HORiZON-ArtSubs.avi 1.573 GB
Gathering some info...

Register and log in Isohunt and see no captcha anymore!

4000 symbols left
Hash F41B376C827321BE555EAB534A053DEB2A319AD2

Related torrents for "Et.Si.On.Vivait.Tous.Ensemble.2011.BRRip.AC3.HORiZON-ArtSubs"

Torrent search:

bd 2011