Paglu 2 (2012) - 1CD - VCDRip - [Xvid-MP3] avi

Size 726.848 MB   0 seeders     Added 2012-11-22 17:35:57

Stream torrent
Starting‥ You need BitLord! Get it from BitLord.com
To download or stream you need BitLord. Visit them at BitLord.com
[CENTER][SIZE=5][COLOR="#ff33cc"] Paglu 2 (2012) - 1CD - VCDRip - [Xvid-MP3][/COLOR][/SIZE]

[IMG]image[/IMG]
 [IMG]image[/IMG]
[IMG]image[/IMG]

Genre: Action, Drama, Romance
Release: Aug 31, 2012

Dev (Dev) is a high school drop out from and a worthless village lad. He is hell bent on getting married. But the girl he wants to marry rejects him stating that he doesn’t have college education. Dev, who is clever and street-smart decides to go to Kolkata for further education. While travelling in the train, he bashes up a bunch of rowdies teasing college girls. At the college in Kolkata, he meets Riya (Koel Mullick) and falls in love with her. A city gangster, Rudra, (Tota Roy Chowdhury) is in love with her and blackmails her to marry him. He beats anyone moving closely with Riya. Meanwhile, henchmen of the dreaded chieftain Krishna Ghoshal (Rajatava Dutta), from Dubai, are looking for Dev in the city.
How Dev comes out of this quagmire to rescue Riya from the clutches of villains and what happens to their love story are revealed in the climax interspersed with twists and turns.

[IMG]image[/IMG]

[SIZE="5"][COLOR="DarkOliveGreen"]Dev as Dev (Paglu)
Koel Mullick as Riya
Tota Roy Chowdhury as Rudra
Rajatava Dutta as Krishna Ghoshal
Rimjhim Mitra as Kabita Ghoshal, Krishna's daughter
Biswajit Dutta as Dev's father
Biswanath Bose as Dev's friend.[/COLOR][/SIZE]

[IMG]image[/IMG]
 General
 Format : AVI
 Format/Info : Audio Video Interleave
 File size : 693 MiB
 Duration : 2h 21mn
 Overall bit rate : 684 Kbps
 Video #0
 ID : 0
 Format : MPEG-4 Visual
 Format profile : Advanced Simple@L5
 Format settings, BVOP : 2
 Format settings, QPel : No
 Format settings, GMC : No warppoints
 Format settings, Matrix : Default (H.263)
 Codec ID : XVID
 Codec ID/Hint : XviD
 Duration : 2h 21mn
 Bit rate : 614 Kbps
 Width : 640 pixels
 Height : 272 pixels
 Display aspect ratio : 2.35:1
 Frame rate : 25.000 fps
 Color space : YUV
 Chroma subsampling : 4:2:0
 Bit depth : 8 bits
 Scan type : Progressive
 Compression mode : Lossy
 Bits/(Pixel*Frame) : 0.141
 Stream size : 622 MiB (90%)
 
[IMG]image[/IMG]
Audio #1
 ID : 1
 Format : MPEG Audio
 Format version : Version 2
 Format profile : Layer 3
 Mode : Joint stereo
 Mode extension : MS Stereo
 Codec ID : 55
 Codec ID/Hint : MP3
 Duration : 2h 21mn
 Bit rate mode : Constant
 Bit rate : 64.0 Kbps
 Channel(s) : 2 channels
 Sampling rate : 24.0 KHz
 Compression mode : Lossy
 Stream size : 64.8 MiB (9%)

[IMG]image[/IMG]
[IMG]image[/IMG]
[IMG]image[/IMG]
[IMG]image[/IMG]
[IMG]image[/IMG]
[IMG]image[/IMG]
[IMG]image[/IMG]
[IMG]image[/IMG]
[IMG]image[/IMG]
[url=http://www.sendspace.com/file/4favdl] [SIZE="6"][B]Sample[/B][/SIZE][/url]

[RIGHT][IMG]image[/IMG][/RIGHT]

[/CENTER]

[[CENTER][SIZE=4][B][COLOR=#8b0000]Need reseeding on any of my torrents , just start leeching and PM me..[/COLOR][/B][/SIZE]

[IMG]image[/IMG][/CENTER]
[LEFT][IMG]image[/IMG]
[/LEFT]

[URL=http://www.facebook.com/pages/Hunter/172061499591085][img]image[/img][/url]
Paglu 2 (2012) - 1CD - VCDRip - [Xvid-MP3].avi 726.848 MB
Gathering some info...

Register and log in Isohunt and see no captcha anymore!

4000 symbols left
Hash FB9E89780ABD7CB3FB2274EED44A0E0D7860A4C7

Related torrents for "Paglu 2 (2012) - 1CD - VCDRip - [Xvid-MP3] avi"

Torrent search:

2012