The.Last.Trapper.2004.DVDRip.AC3_5.1(Fre_Eng)-kungfiju

Size 2.058 GB   0 seeders     Added 2012-11-23 06:53:47

Stream torrent
Startingā€„ You need BitLord! Get it from BitLord.com
To download or stream you need BitLord. Visit them at BitLord.com
Globe-trotting filmmaker Nicolas Vanier profiles 50-year-old trapper Norman Winther, who lives in the Rocky Mountains with his Nahanni wife, Nebraska, and their beloved dogs, and who stands as a robust living testament to self-sufficiency. Norman and Nebraska live off the land: their house is made of wood from the forest trees, and by hunting and fishing, Norman is capable of providing more than enough food to feed himself, his wife, and their dogs. It's all part of the careful balance between ...


General
Format                                   : Matroska
Format version                           : Version 2
File size                                : 1.92 GiB
Duration                                 : 1h 36mn
Overall bit rate                         : 2 832 Kbps
Movie name                               : The Last Trapper
Encoded date                             : UTC 2012-11-19 20:23:16
Writing application                      : DVDFab
Writing library                          : libebml v0.7.8 + libmatroska v0.8.1

Video
ID                                       : 1
Format                                   : AVC
Format/Info                              : Advanced Video Codec
Format profile                           : Main@L3.1
Format settings, CABAC                   : Yes
Format settings, ReFrames                : 2 frames
Codec ID                                 : V_MPEG4/ISO/AVC
Duration                                 : 1h 36mn
Bit rate                                 : 2 136 Kbps
Width                                    : 1 024 pixels
Height                                   : 576 pixels
Display aspect ratio                     : 16:9
Frame rate mode                          : Constant
Frame rate                               : 25.000 fps
Color space                              : YUV
Chroma subsampling                       : 4:2:0
Bit depth                                : 8 bits
Scan type                                : Progressive
Bits/(Pixel*Frame)                       : 0.145
Stream size                              : 1.45 GiB (75%)
Writing library                          : x264 core
Default                                  : Yes
Forced                                   : No
Color primaries                          : BT.601 NTSC
Transfer characteristics                 : BT.709
Matrix coefficients                      : BT.601

Audio #1 (French)
ID                                       : 2
Format                                   : AC-3
Format/Info                              : Audio Coding 3
Mode extension                           : CM (complete main)
Format settings, Endianness              : Big
Codec ID                                 : A_AC3
Duration                                 : 1h 36mn
Bit rate mode                            : Constant
Bit rate                                 : 448 Kbps
Channel(s)                               : 6 channels
Channel positions                        : Front: L C R, Side: L R, LFE
Sampling rate                            : 48.0 KHz
Bit depth                                : 16 bits
Compression mode                         : Lossy
Stream size                              : 310 MiB (16%)
Default                                  : Yes
Forced                                   : No

Audio #2 (English)
ID                                       : 3
Format                                   : AC-3
Format/Info                              : Audio Coding 3
Mode extension                           : CM (complete main)
Format settings, Endianness              : Big
Codec ID                                 : A_AC3
Duration                                 : 1h 36mn
Bit rate mode                            : Constant
Bit rate                                 : 192 Kbps
Channel(s)                               : 2 channels
Channel positions                        : Front: L R
Sampling rate                            : 48.0 KHz
Bit depth                                : 16 bits
Compression mode                         : Lossy
Stream size                              : 133 MiB (7%)
Default                                  : No
Forced                                   : No

Enjoy!		
info.txt 4.386 KB
The.Last.Trapper.2004.DVDRip.AC3_5.1(Fre_Eng)-kungfiju.mkv 2.058 GB
The.Last.Trapper.jpg 35.51 KB
Gathering some info...

Register and log in Isohunt and see no captcha anymore!

4000 symbols left
Hash 0A84CF490AA280FDE8F2684B6A1966E1BF763251