imdb
rating

7.0
ParaNorman

ParaNorman (2012)

Adventure, Animation, Comedy, Family

Full description
quality   dvdrip dvd screener bd x264 hd

ParaNorman 2012 BDRiP XViD avi

Size 1.055 GB   2 seeders     Added 2012-11-24 03:36:00

Stream torrent
Starting‥ You need BitLord! Get it from BitLord.com
To download or stream you need BitLord. Visit them at BitLord.com
ParaNorman.2012.BDRiP.XViD.avi



Format                                   : AVI
Format/Info                              : Audio Video Interleave
File size                                : 1 006 MiB
Duration                                 : 1h 32mn
Overall bit rate                         : 1 525 Kbps
Writing application                      : Lavf53.24.0

Video
ID                                       : 0
Format                                   : MPEG-4 Visual
Format profile                           : Simple@L3
Format settings, BVOP                    : No
Format settings, QPel                    : No
Format settings, GMC                     : No warppoints
Format settings, Matrix                  : Default (H.263)
Codec ID                                 : XVID
Codec ID/Hint                            : XviD
Duration                                 : 1h 32mn
Bit rate                                 : 1 400 Kbps
Width                                    : 640 pixels
Height                                   : 272 pixels
Display aspect ratio                     : 2.40:1
Frame rate                               : 23.976 fps
Color space                              : YUV
Chroma subsampling                       : 4:2:0
Bit depth                                : 8 bits
Scan type                                : Progressive
Compression mode                         : Lossy
Bits/(Pixel*Frame)                       : 0.335
Stream size                              : 924 MiB (92%)
Writing library                          : XviD 1.2.1 (UTC 2008-12-04)

Audio
ID                                       : 1
Format                                   : MPEG Audio
Format version                           : Version 1
Format profile                           : Layer 3
Mode                                     : Joint stereo
Mode extension                           : MS Stereo
Codec ID                                 : 55
Codec ID/Hint                            : MP3
Duration                                 : 1h 32mn
Bit rate mode                            : Constant
Bit rate                                 : 112 Kbps
Channel(s)                               : 2 channels
Sampling rate                            : 48.0 KHz
Compression mode                         : Lossy
Stream size                              : 73.9 MiB (7%)
Alignment                                : Aligned on interleaves
Interleave, duration                     : 24 ms (0.58 video frame)
Writing library                          : LAME3.98.4-------------------------------------Torrent downloaded from http://thepiratebay.se
ParaNorman.2012.BDRiP.XViD.avi 1.055 GB
Gathering some info...

Register and log in Isohunt and see no captcha anymore!

4000 symbols left
Hash 27785E013353DA73C94CA0C3955A12F3518CE664

Related torrents for "ParaNorman 2012 BDRiP XViD avi"

Torrent search:

2012 bd