imdb
rating

7.0
Little Big Soldier

Little Big Soldier (2010)

Action, Adventure, Comedy

Full description
quality   dvdrip dvdr x264 bd

Little Big Soldier 2010 BDRiP XViD avi

Size 1.237 GB   0 seeders     Added 2012-11-25 01:37:00

Stream torrent
Starting‥ You need BitLord! Get it from BitLord.com
To download or stream you need BitLord. Visit them at BitLord.com
Little.Big.Soldier.2010.BDRiP.XViD.avi



Format                                   : AVI
Format/Info                              : Audio Video Interleave
Format profile                           : OpenDML
File size                                : 1.15 GiB
Duration                                 : 1h 35mn
Overall bit rate                         : 1 729 Kbps
Movie name                               : Little.Big.Soldier.2010
Writing application                      : Lavf53.24.0

Video
ID                                       : 0
Format                                   : MPEG-4 Visual
Format profile                           : Simple@L3
Format settings, BVOP                    : No
Format settings, QPel                    : No
Format settings, GMC                     : No warppoints
Format settings, Matrix                  : Default (H.263)
Codec ID                                 : XVID
Codec ID/Hint                            : XviD
Duration                                 : 1h 35mn
Bit rate                                 : 1 601 Kbps
Width                                    : 640 pixels
Height                                   : 272 pixels
Display aspect ratio                     : 2.35:1
Frame rate                               : 24.000 fps
Color space                              : YUV
Chroma subsampling                       : 4:2:0
Bit depth                                : 8 bits
Scan type                                : Progressive
Compression mode                         : Lossy
Bits/(Pixel*Frame)                       : 0.383
Stream size                              : 1.07 GiB (93%)
Title                                    : Little.Big.Soldier.2010
Writing library                          : XviD 1.2.1 (UTC 2008-12-04)

Audio
ID                                       : 1
Format                                   : MPEG Audio
Format version                           : Version 1
Format profile                           : Layer 3
Mode                                     : Joint stereo
Mode extension                           : MS Stereo
Codec ID                                 : 55
Codec ID/Hint                            : MP3
Duration                                 : 1h 35mn
Bit rate mode                            : Constant
Bit rate                                 : 112 Kbps
Channel(s)                               : 2 channels
Sampling rate                            : 48.0 KHz
Compression mode                         : Lossy
Stream size                              : 76.4 MiB (6%)
Alignment                                : Aligned on interleaves
Interleave, duration                     : 24 ms (0.58 video frame)
Title                                    : Little Big Soldier English DTS 5.1
Writing library                          : LAME3.98.4-------------------------------------Torrent downloaded from http://thepiratebay.se
Little.Big.Soldier.2010.BDRiP.XViD.avi 1.237 GB
Gathering some info...

Register and log in Isohunt and see no captcha anymore!

4000 symbols left
Hash E7E913333EF8BB40250ECEFC50BCC84A38C2B3EB

Related torrents for "Little Big Soldier 2010 BDRiP XViD avi"

Torrent search:

2010 bd