imdb
rating

8.1
Woodstock

Woodstock (1970)

Documentary, Music

Full description
quality   dvdr x264 hd bd dvdrip

WoodStock 3 Days Of Peace & Music (1970) DVDRip.x264 {Worldwide7477}

Size 1.726 GB   3 seeders     Added 2012-11-25 06:12:26

Stream torrent
Starting‥ You need BitLord! Get it from 1BitLord.com
To download or stream you need BitLord. Visit them at BitLord.com
[center][i][b][IMG]image[/IMG]

[IMG]image[/IMG] [IMG]image[/IMG]

[IMG]image[/IMG]

[IMG]image[/IMG]

[color=red]Woodstock 3 Days of Peace & Music (1970)[/color]

Format : MPEG-4
Format profile : Base Media / Version 2
Codec ID : mp42
File size : 1.60 GiB
Duration : 3h 44mn
Overall bit rate mode : Variable
Overall bit rate : 1 020 Kbps
Encoded date : UTC 2012-11-24 04:40:39
Tagged date : UTC 2012-11-24 05:53:51
Writing application : HandBrake 0.9.8 2012071700

Video
ID : 1
Format : AVC
Format/Info : Advanced Video Codec
Format profile : Main@L2.1
Format settings, CABAC : Yes
Format settings, ReFrames : 4 frames
Codec ID : avc1
Codec ID/Info : Advanced Video Coding
Duration : 3h 44mn
Bit rate mode : Variable
Bit rate : 855 Kbps
Width : 664 pixels
Height : 270 pixels
Display aspect ratio : 2.459
Frame rate mode : Variable
Frame rate : 23.976 fps
Minimum frame rate : 23.974 fps
Maximum frame rate : 90 000.000 fps
Color space : YUV
Chroma subsampling : 4:2:0
Bit depth : 8 bits
Scan type : Progressive
Bits/(Pixel*Frame) : 0.199
Stream size : 1.34 GiB (84%)
Writing library : x264 core 120
Encoded date : UTC 2012-11-24 04:40:39
Tagged date : UTC 2012-11-24 05:53:51
Color primaries : BT.601 NTSC
Transfer characteristics : BT.709
Matrix coefficients : BT.601

[IMG]image[/IMG]

[IMG]image[/IMG]

[color=blue]Click Below For IMDB INFO[/color]
[IMG]image[/IMG]
[url=http://www.imdb.com/title/tt0066580/][IMG]image[/IMG][/url]

Audio
ID : 2
Format : AAC
Format/Info : Advanced Audio Codec
Format profile : LC
Codec ID : 40
Duration : 3h 44mn
Bit rate mode : Variable
Bit rate : 160 Kbps
Maximum bit rate : 307 Kbps
Channel(s) : 2 channels
Channel positions : Front: L R
Sampling rate : 48.0 KHz
Compression mode : Lossy
Delay relative to video : 83ms
Stream size : 257 MiB (16%)
Encoded date : UTC 2012-11-24 04:40:39
Tagged date : UTC 2012-11-24 05:53:51

[IMG]image[/IMG]

[IMG]image[/IMG]
[IMG]image[/IMG]

[color=red]Don't Take It If You Can't Give Back
Click my name add your review and rate thanks enjoy!![/color]
[IMG]image[/IMG] [IMG]image[/IMG] [IMG]image[/IMG]
[/url][/b][/i][/center]
Woodstock 3 Days of Peace & Music (1970).mp4 1.717 GB
Woodstock 3 Days of Peace & Music (1970)_sample.mp4 9.277 MB
Woodstock 3 Days of Peace & Music (1970) Movie Info.txt 5.62 KB
Gathering some info...

Register and log in Isohunt and see no captcha anymore!

4000 symbols left
Hash EFD118020FB4DBAD120001B5D6C67AF76ACC1151

Related torrents for "WoodStock 3 Days Of Peace & Music (1970) DVDRip.x264 {Worldwide7477}"

Torrent search:

dvdrip x264 1970