Max Melvin-Seasons(2008)-VBR(mp3)

Size 94.369 MB   0 seeders     Added 2012-11-25 12:20:46

Stream torrent
Starting‥ You need BitLord! Get it from BitLord.com
To download or stream you need BitLord. Visit them at BitLord.com
Not my rip, just piecing the album together.
Vbr is around 160-192kbps with Someday being 96kbps, but it sounds good.
http://www.discogs.com/Max-Melvin-Seasons/release/1405626
[image=9Mb4EULzpB]
1 		Underneath 	5:20 	
2 		Roots 	5:14 	
3 		Seasons 	6:05 	
4 		Endless 	6:12 	
5 		Seven On 	4:59 	
6 		Nightstand 	4:52 	
7 		Changes 	5:22 	
8 		Ease 	5:36 	
9 		Heathen 	4:52 	
10 		Someday 	4:23 	
11 		Jupiter Dub 	5:34 	
12 		Stereo Love 	4:27 	
13 		Galaxy 	5:53
Enjoy! :)
General
Complete name : /media/night/Max Melvin-Seasons(2008)-VBR(mp3)/1.Max Melvin - Underneath.mp3
Format : MPEG Audio
File size : 7.18 MiB
Duration : 5mn 21s
Overall bit rate mode : Variable
Overall bit rate : 187 Kbps
Album : Seasons (German Import)
Track name : Underneath
Track name/Position : 1
Performer : Max Melvin
Genre : Electronic
Recorded date : 2008
Writing library : LAME3.97 
Comment : 
desc : Grab by www.foobnix.com
Audio
Format : MPEG Audio
Format version : Version 1
Format profile : Layer 3
Mode : Joint stereo
Mode extension : MS Stereo
Duration : 5mn 21s
Bit rate mode : Variable
Bit rate : 187 Kbps
Minimum bit rate : 32.0 Kbps
Channel(s) : 2 channels
Sampling rate : 44.1 KHz
Compression mode : Lossy
Stream size : 7.18 MiB (100%)
Writing library : LAME3.97 
Encoding settings : -m j -V 2 -q 3 -lowpass 18.6 --vbr-new -b 32
Language : English
General
Complete name : /media/night/Max Melvin-Seasons(2008)-VBR(mp3)/10.Max Melvin - Someday.mp3
Format : MPEG Audio
File size : 2.43 MiB
Duration : 3mn 32s
Overall bit rate mode : Constant
Overall bit rate : 96.0 Kbps
Track name : Someday
Performer : Max Melvin
Writing library : www.foobnix.com
desc : Grab by www.foobnix.com
Audio
Format : MPEG Audio
Format version : Version 1
Format profile : Layer 3
Mode : Joint stereo
Mode extension : MS Stereo
Duration : 3mn 32s
Bit rate mode : Constant
Bit rate : 96.0 Kbps
Channel(s) : 2 channels
Sampling rate : 44.1 KHz
Compression mode : Lossy
Stream size : 2.43 MiB (100%)
General
Complete name : /media/night/Max Melvin-Seasons(2008)-VBR(mp3)/11.Max Melvin - Jupiter Dub.mp3
Format : MPEG Audio
File size : 7.40 MiB
Duration : 5mn 36s
Overall bit rate mode : Variable
Overall bit rate : 184 Kbps
Album : Seasons (German Import)
Track name : Jupiter Dub
Track name/Position : 11
Grouping : StepinMN
Performer : Max Melvin
Genre : ChillOut, Lo-Fi
Recorded date : 2008
Writing library : LAME3.97 
Copyright : 拾伈rén收藏
Cover : Yes
Cover MIME : image/jpeg
ALBUMARTIST : Max Melvin
YEARREL : 2008
desc : Grab by www.foobnix.com
Audio
Format : MPEG Audio
Format version : Version 1
Format profile : Layer 3
Mode : Joint stereo
Duration : 5mn 36s
Bit rate mode : Variable
Bit rate : 184 Kbps
Minimum bit rate : 32.0 Kbps
Channel(s) : 2 channels
Sampling rate : 44.1 KHz
Compression mode : Lossy
Stream size : 7.38 MiB (100%)
Writing library : LAME3.97 
Encoding settings : -m j -V 2 -q 3 -lowpass 18.6 --vbr-new -b 32
General
Complete name : /media/night/Max Melvin-Seasons(2008)-VBR(mp3)/12.Max Melvin - Stereo Love.mp3
Format : MPEG Audio
File size : 5.88 MiB
Duration : 4mn 28s
Overall bit rate mode : Variable
Overall bit rate : 183 Kbps
Album : Seasons (German Import)
Part/Position : 1
Part/Total : 1
Track name : Stereo Love
Track name/Position : 12
Track name/Total : 13
Performer : Max Melvin
Genre : Downtempo
Recorded date : 2008
Writing library : LAME3.97 
Copyright : 拾伈rén收藏
Cover : Yes
Cover MIME : image/jpeg
ALBUMARTIST : Max Melvin
desc : Grab by www.foobnix.com
YEARREL : 2008
Audio
Format : MPEG Audio
Format version : Version 1
Format profile : Layer 3
Mode : Joint stereo
Mode extension : MS Stereo
Duration : 4mn 28s
Bit rate mode : Variable
Bit rate : 183 Kbps
Minimum bit rate : 32.0 Kbps
Channel(s) : 2 channels
Sampling rate : 44.1 KHz
Compression mode : Lossy
Stream size : 5.86 MiB (100%)
Writing library : LAME3.97 
Encoding settings : -m j -V 2 -q 3 -lowpass 18.6 --vbr-new -b 32
General
Complete name : /media/night/Max Melvin-Seasons(2008)-VBR(mp3)/13.Max Melvin - Galaxy.mp3
Format : MPEG Audio
File size : 7.97 MiB
Duration : 5mn 54s
Overall bit rate mode : Variable
Overall bit rate : 188 Kbps
Album : Seasons
Track name : Galaxy
Track name/Position : 13
Performer : Max Melvin
Genre : Electronic
Recorded date : 2008
Writing library : LAME3.97 
Comment : WUS 2008
desc : Grab by www.foobnix.com
Audio
Format : MPEG Audio
Format version : Version 1
Format profile : Layer 3
Mode : Joint stereo
Duration : 5mn 54s
Bit rate mode : Variable
Bit rate : 188 Kbps
Minimum bit rate : 32.0 Kbps
Channel(s) : 2 channels
Sampling rate : 44.1 KHz
Compression mode : Lossy
Stream size : 7.96 MiB (100%)
Writing library : LAME3.97 
Encoding settings : -m j -V 2 -q 3 -lowpass 18.6 --vbr-new -b 32
Language : English
General
Complete name : /media/night/Max Melvin-Seasons(2008)-VBR(mp3)/2.Max Melvin - Roots.mp3
Format : MPEG Audio
File size : 6.96 MiB
Duration : 5mn 15s
Overall bit rate mode : Variable
Overall bit rate : 185 Kbps
Album : Seasons (German Import)
Track name : Roots
Track name/Position : 2
Performer : Max Melvin
Genre : Electronic
Recorded date : 2008
Writing library : LAME3.97 
desc : Grab by www.foobnix.com
Audio
Format : MPEG Audio
Format version : Version 1
Format profile : Layer 3
Mode : Joint stereo
Duration : 5mn 15s
Bit rate mode : Variable
Bit rate : 185 Kbps
Minimum bit rate : 32.0 Kbps
Channel(s) : 2 channels
Sampling rate : 44.1 KHz
Compression mode : Lossy
Stream size : 6.96 MiB (100%)
Writing library : LAME3.97 
Encoding settings : -m j -V 2 -q 3 -lowpass 18.6 --vbr-new -b 32
Language : English
General
Complete name : /media/night/Max Melvin-Seasons(2008)-VBR(mp3)/3.Max Melvin - Seasons.mp3
Format : MPEG Audio
File size : 8.31 MiB
Duration : 5mn 41s
Overall bit rate mode : Variable
Overall bit rate : 204 Kbps
Album : Kontor Sunset Chill Ibiza Edition
Track name : Seasons
Track name/Position : 32
Compilation : Yes
Performer : Max Melvin
Genre : Ambient
Recorded date : 2008
Writing library : LAME3.97 
desc : Grab by www.foobnix.com
Audio
Format : MPEG Audio
Format version : Version 1
Format profile : Layer 3
Mode : Joint stereo
Duration : 5mn 41s
Bit rate mode : Variable
Bit rate : 204 Kbps
Minimum bit rate : 32.0 Kbps
Channel(s) : 2 channels
Sampling rate : 44.1 KHz
Compression mode : Lossy
Stream size : 8.31 MiB (100%)
Writing library : LAME3.97 
Encoding settings : -m j -V 2 -q 3 -lowpass 18.6 --vbr-new -b 32
Language : English
General
Complete name : /media/night/Max Melvin-Seasons(2008)-VBR(mp3)/4.Max Melvin - Endless.mp3
Format : MPEG Audio
File size : 8.31 MiB
Duration : 6mn 14s
Overall bit rate mode : Variable
Overall bit rate : 186 Kbps
Album : Seasons (German Import)
Track name : Endless
Track name/Position : 15
Performer : Max Melvin
Publisher : 2bpro records
Genre : Chillout
Recorded date : 2009
Writing library : LAME3.97 
desc : Grab by www.foobnix.com
Audio
Format : MPEG Audio
Format version : Version 1
Format profile : Layer 3
Mode : Joint stereo
Mode extension : MS Stereo
Duration : 6mn 14s
Bit rate mode : Variable
Bit rate : 186 Kbps
Minimum bit rate : 32.0 Kbps
Channel(s) : 2 channels
Sampling rate : 44.1 KHz
Compression mode : Lossy
Stream size : 8.30 MiB (100%)
Writing library : LAME3.97 
Encoding settings : -m j -V 2 -q 3 -lowpass 18.6 --vbr-new -b 32
Language : English
General
Complete name : /media/night/Max Melvin-Seasons(2008)-VBR(mp3)/5.Max Melvin - Seven On.mp3
Format : MPEG Audio
File size : 6.83 MiB
Duration : 5mn 0s
Overall bit rate mode : Variable
Overall bit rate : 190 Kbps
Album : Seasons (German Import)
Track name : Seven On
Track name/Position : 5
Performer : Max Melvin
Genre : Electronic
Recorded date : 2008
Writing library : LAME3.97 
Comment : WUS 2008
desc : Grab by www.foobnix.com
Audio
Format : MPEG Audio
Format version : Version 1
Format profile : Layer 3
Mode : Joint stereo
Duration : 5mn 0s
Bit rate mode : Variable
Bit rate : 190 Kbps
Minimum bit rate : 32.0 Kbps
Channel(s) : 2 channels
Sampling rate : 44.1 KHz
Compression mode : Lossy
Stream size : 6.83 MiB (100%)
Writing library : LAME3.97 
Encoding settings : -m j -V 2 -q 3 -lowpass 18.6 --vbr-new -b 32
Language : English
General
Complete name : /media/night/Max Melvin-Seasons(2008)-VBR(mp3)/6.Max Melvin - Nightstand.mp3
Format : MPEG Audio
File size : 6.73 MiB
Duration : 4mn 53s
Overall bit rate mode : Variable
Overall bit rate : 192 Kbps
Album : Seasons (German Import)
Track name : Nightstand
Track name/Position : 6
Performer : Max Melvin
Genre : Electronic
Recorded date : 2008
Writing library : LAME3.97 
desc : Grab by www.foobnix.com
Audio
Format : MPEG Audio
Format version : Version 1
Format profile : Layer 3
Mode : Joint stereo
Mode extension : MS Stereo
Duration : 4mn 53s
Bit rate mode : Variable
Bit rate : 192 Kbps
Minimum bit rate : 32.0 Kbps
Channel(s) : 2 channels
Sampling rate : 44.1 KHz
Compression mode : Lossy
Stream size : 6.73 MiB (100%)
Writing library : LAME3.97 
Encoding settings : -m j -V 2 -q 3 -lowpass 18.6 --vbr-new -b 32
Language : English
General
Complete name : /media/night/Max Melvin-Seasons(2008)-VBR(mp3)/7.Max Melvin - Changes.mp3
Format : MPEG Audio
File size : 7.71 MiB
Duration : 5mn 24s
Overall bit rate mode : Variable
Overall bit rate : 199 Kbps
Album : Seasons (German Import)
Track name : Changes
Track name/Position : 7
Performer : Max Melvin
Genre : Electronic
Recorded date : 2008
Writing library : LAME3.97 
desc : Grab by www.foobnix.com
Audio
Format : MPEG Audio
Format version : Version 1
Format profile : Layer 3
Mode : Joint stereo
Mode extension : MS Stereo
Duration : 5mn 24s
Bit rate mode : Variable
Bit rate : 199 Kbps
Minimum bit rate : 32.0 Kbps
Channel(s) : 2 channels
Sampling rate : 44.1 KHz
Compression mode : Lossy
Stream size : 7.70 MiB (100%)
Writing library : LAME3.97 
Encoding settings : -m j -V 2 -q 3 -lowpass 18.6 --vbr-new -b 32
Language : English
General
Complete name : /media/night/Max Melvin-Seasons(2008)-VBR(mp3)/8.Max Melvin - Ease.mp3
Format : MPEG Audio
File size : 7.64 MiB
Duration : 5mn 37s
Overall bit rate mode : Variable
Overall bit rate : 190 Kbps
Album : Seasons (German Import)
Track name : Ease
Track name/Position : 8
Performer : Max Melvin
Genre : Electronic
Recorded date : 2008
Writing library : LAME3.97 
desc : Grab by www.foobnix.com
Audio
Format : MPEG Audio
Format version : Version 1
Format profile : Layer 3
Mode : Joint stereo
Mode extension : MS Stereo
Duration : 5mn 37s
Bit rate mode : Variable
Bit rate : 190 Kbps
Minimum bit rate : 32.0 Kbps
Channel(s) : 2 channels
Sampling rate : 44.1 KHz
Compression mode : Lossy
Stream size : 7.64 MiB (100%)
Writing library : LAME3.97 
Encoding settings : -m j -V 2 -q 3 -lowpass 18.6 --vbr-new -b 32
Language : English
General
Complete name : /media/night/Max Melvin-Seasons(2008)-VBR(mp3)/9.Max Melvin - Heathen.mp3
Format : MPEG Audio
File size : 6.66 MiB
Duration : 4mn 53s
Overall bit rate mode : Variable
Overall bit rate : 190 Kbps
Album : Seasons (German Import)
Track name : Heathen
Track name/Position : 9
Performer : Max Melvin
Genre : Electronic
Recorded date : 2008
Writing library : LAME3.97 
desc : Grab by www.foobnix.com
Audio
Format : MPEG Audio
Format version : Version 1
Format profile : Layer 3
Mode : Joint stereo
Duration : 4mn 53s
Bit rate mode : Variable
Bit rate : 190 Kbps
Minimum bit rate : 32.0 Kbps
Channel(s) : 2 channels
Sampling rate : 44.1 KHz
Compression mode : Lossy
Stream size : 6.66 MiB (100%)
Writing library : LAME3.97 
Encoding settings : -m j -V 2 -q 3 -lowpass 18.6 --vbr-new -b 32
1.Max Melvin - Underneath.mp3 7.527 MB
10.Max Melvin - Someday.mp3 2.547 MB
11.Max Melvin - Jupiter Dub.mp3 7.755 MB
Gathering some info...

Register and log in Isohunt and see no captcha anymore!

4000 symbols left
Hash 08C856B978D6B4A310DA0031AC7360F74A3E3E46