imdb
rating

8.4
Detective Conan

Detective Conan (1996)

Action & Adventure, Animation, Comedy, Mystery, Sci-Fi & Fantasy

Full description

Detective Conan (Case Closed) (Season 2 Ep 29-54) 480p [Cursator]

Size 1.234 GB   6 seeders     Added 2012-11-25 12:30:23

Stream torrent
Starting‥ You need BitLord! Get it from BitLord.com
10
To download or stream you need BitLord. Visit them at BitLord.com
All The Episodes of Detective Conan (Season 2) aka "Case Closed" (Ep 29-54) at 480p Video Quality :)

Please seed after you download.

--------------------------------------------------------------------------------

Cover
--------------------------------------------------------------------------------
        
[img]image[/img]
--------------------------------------------------------------------------------

[img]image[/img]
---------------------------------------------------------------------------------

IMDB Info
--------------------

[url]http://www.imdb.com/title/tt0131179/[/url]

Torrent Statistics

[url=http://www.torrent-stats.info][img]image[/img][/url]
----------------------------------------------------------------------------------

General
--------

Format                                   : MPEG-4
Format profile                           : Base Media
Codec ID                                 : isom
File size                                : 39.4 MiB
Duration                                 : 24mn 39s
Overall bit rate mode                    : Variable
Overall bit rate                         : 223 Kbps
Writing application                      : Lavf52.61.0


[img]image[/img]
---------------------------------------

ID                                       : 1
Format                                   : AVC
Format/Info                              : Advanced Video Codec
Format profile                           : High@L3.0
Format settings, CABAC                   : Yes
Format settings, ReFrames                : 5 frames
Codec ID                                 : avc1
Codec ID/Info                            : Advanced Video Coding
Duration                                 : 24mn 39s
Bit rate                                 : 124 Kbps
Width                                    : 640 pixels
Height                                   : 480 pixels
Display aspect ratio                     : 4:3
Frame rate mode                          : Constant
Frame rate                               : 23.976 fps
Color space                              : YUV
Chroma subsampling                       : 4:2:0
Bit depth                                : 8 bits
Scan type                                : Progressive
Bits/(Pixel*Frame)                       : 0.017
Stream size                              : 21.8 MiB (55%)
Writing library                          : x264 core 93 r1542 5b86182

[img]image[/img]
----------------------------------

ID                                       : 2
Format                                   : AAC
Format/Info                              : Advanced Audio Codec
Format profile                           : LC
Codec ID                                 : 40
Duration                                 : 24mn 39s
Bit rate mode                            : Variable
Bit rate                                 : 96.0 Kbps
Channel(s)                               : 2 channels
Channel positions                        : Front: L R
Sampling rate                            : 48.0 KHz
Compression mode                         : Lossy
Delay relative to video                  : 83ms
Stream size                              : 16.9 MiB (43%)


----------------------------------------------------------------------------------

[img]image[/img]
----------------------------------------------------------------------------------
              
[img]image[/img]

              
[img]image[/img]

              
[img]image[/img]

              
[img]image[/img]

              
[img]image[/img]

 

----------------------------------------------------------------------------------

Story
----------------------------------------------------------------------------------

Kudo Shinichi is a seventeen year-old high school detective whom people call the "Modern Sherlock Holmes." However, one night after a date with his childhood sweetheart, Ran, Shinichi witnessed an illegal trade and, caught off his guard, was knocked unconscious and fed a drug that was supposed to kill him... but he woke up and found himself shrunken to a seven year old. In order to track down the men who did this to him, Shinichi hid his identity and lived with Ran, whose father happened to be a hopeless detective, and with that came a series of murders and mysteries that he must solve.

----------------------------------------------------------------------------------

Thank you for downloading. 

Enjoy Watching :)	
----------------------------------------------------------------------------------

[b]Facebook[/b]
----------------------------------------------------------------------------------

[b]                                                                             [url=http://facebook.com/cursator] [img]image[/img][/url]
                                                                             [b]Find Me on Facebook :)[/b]

or 

[b]Cursator@ymail.com[/b]
							
				
					
							
							
Season 2/Cover/Detective Conan [Cursator].jpg 562.949 KB
Season 2/Detective Conan Ep 29.mp4 46.817 MB
Season 2/Detective Conan Ep 30.mp4 48.876 MB
Gathering some info...

Register and log in Isohunt and see no captcha anymore!

4000 symbols left
Hash d139df1b11bbce077bc27daa5a1c8cbdbebceddc

Related torrents for "Detective Conan (Case Closed) (Season 2 Ep 29-54) 480p [Cursator]"

Torrent search:

season 02 episode 29