imdb
rating

7.8
Wreck-It Ralph

Wreck-It Ralph (2012)

Adventure, Animation, Comedy, Family

Full description
quality   dvdrip hd fullhd screener dvd bd

Wreck-It Ralph 2012 DVDRip XviD-S4A

Size 722.71 MB   0 seeders     Added 2012-11-26 08:03:47

Stream torrent
Starting‥ You need BitLord! Get it from BitLord.com
To download or stream you need BitLord. Visit them at BitLord.com
\r\n\r\nVideo\r\nID : 1\r\nFormat : AVC\r\nFormat/Info : Advanced Video Codec\r\nFormat profile : High@L4.1\r\nFormat settings, CABAC : Yes\r\nFormat settings, ReFrames : 3 frames\r\nCodec ID : avc1\r\nCodec ID/Info : Advanced Video Coding\r\nDuration : 1h 30mn\r\nBit rate mode : Variable\r\nBit rate : 1 862 Kbps\r\nMaximum bit rate : 40.0 Mbps\r\nWidth : 720 pixels\r\nHeight : 400 pixels\r\nDisplay aspect ratio : 16:9\r\nFrame rate mode : Constant\r\nFrame rate : 23.976 fps\r\nColor space : YUV\r\nChroma subsampling : 4:2:0\r\nBit depth : 8 bits\r\nScan type : Progressive\r\nBits/(Pixel*Frame) : 0.270\r\nStream size : 1.18 GiB (84%)\r\nWriting library : x264 core 128 r2216 198a7ea\r\n\r\nAudio\r\nID : 2\r\nFormat : AAC\r\nFormat/Info : Advanced Audio Codec\r\nFormat profile : LC\r\nCodec ID : 40\r\nDuration : 1h 30mn\r\nBit rate mode : Variable\r\nBit rate : 341 Kbps\r\nMaximum bit rate : 407 Kbps\r\nChannel(s) : 6 channels\r\nChannel positions : Front: L C R, Side: L R, LFE\r\nSampling rate : 48.0 KHz\r\nCompression mode : Lossy\r\nStream size : 221 MiB (15%)\r\nLanguage : English\r\nEncoded date : UTC 2012-11-03 12:50:05\r\n\r\n
Wreck-It Ralph.2012.DVDRip.XviD-S4A/info.nfo 5.215 KB
Wreck-It Ralph.2012.DVDRip.XviD-S4A/READ this before playing the Video.txt 5.748 KB
Wreck-It Ralph.2012.DVDRip.XviD-S4A/subtitles/English/subtitles.srt 47.548 KB
Gathering some info...

Register and log in Isohunt and see no captcha anymore!

4000 symbols left
Hash 0f2a2172a96ea701121a9ad2c09eb69b1a65ce5f

Related torrents for "Wreck-It Ralph 2012 DVDRip XviD-S4A"

Torrent search:

dvdrip 2012