imdb
rating

7.1
Notes Towards an African Orestes

Notes Towards an African Orestes (1970)

Full description
quality   bd

Notes For An African Orestes 1970 BDRip XviD-AEN

Size 732.658 MB   0 seeders     Added 2012-11-26 11:01:08

Stream torrent
Starting‚Ä• You need BitLord! Get it from BitLord.com
To download or stream you need BitLord. Visit them at BitLord.com
The director presents takes and scenes filmed on location in Africa for a film-that-never-was, a black Oresteia.

---------------------------

General
Complete name : Notes.For.An.African.Orestes.1970.BDRip.XviD-AEN.avi
Format : AVI
Format/Info : Audio Video Interleave
File size : 699 MiB
Duration : 1h 13mn
Overall bit rate : 1 334 Kbps
Writing application : Nandub v1.0rc2
Writing library : Nandub build 1852/release

Video
ID : 0
Format : MPEG-4 Visual
Format profile : Advanced Simple@L5
Format settings, BVOP : Yes
Format settings, QPel : No
Format settings, GMC : No warppoints
Format settings, Matrix : Default (H.263)
Muxing mode : Packed bitstream
Codec ID : XVID
Codec ID/Hint : XviD
Duration : 1h 13mn
Bit rate : 1 236 Kbps
Width : 624 pixels
Height : 464 pixels
Display aspect ratio : 4:3
Frame rate : 23.976 fps
Resolution : 8 bits
Colorimetry : 4:2:0
Scan type : Progressive
Bits/(Pixel*Frame) : 0.178
Stream size : 647 MiB (93%)
Writing library : XviD 1.2.1 (UTC 2008-12-04)

Audio
ID : 1
Format : MPEG Audio
Format version : Version 1
Format profile : Layer 3
Codec ID : 55
Codec ID/Hint : MP3
Duration : 1h 13mn
Bit rate mode : Variable
Bit rate : 85.6 Kbps
Minimum bit rate : 32.0 Kbps
Channel(s) : 1 channel
Sampling rate : 48.0 KHz
Stream size : 44.8 MiB (6%)
Alignment : Aligned on interleaves
Interleave, duration : 24 ms (0.58 video frame)
Interleave, preload duration : 206 ms
Writing library : LAME3.98r
Encoding settings : -m m -V 4 -q 0 -lowpass 17.5 --vbr-new -b 32

Subs: English		
Notes.For.An.African.Orestes.1970.BDRip.XviD-AEN/Notes.For.An.African.Orestes.1970.BDRip.XviD-AEN.avi 732.535 MB
Notes.For.An.African.Orestes.1970.BDRip.XviD-AEN/Notes.For.An.African.Orestes.1970.BDRip.XviD-AEN.srt 123.296 KB
Gathering some info...

Register and log in Isohunt and see no captcha anymore!

4000 symbols left
Hash 62fc92fca173b8ea862537153bd65912d38763aa