Talaash (2012) DVDRip_XviD AC3 - AGCZX

Size 539.174 MB   0 seeders     Added 2012-11-26 18:35:17

To download or stream you need BitLord. Visit them at BitLord.com
IMDb:  http://www.imdb.com/title/tt1787988/
-------------------------------------------

Talaash (2012) Hindi DVDRip_XviD.AC3 - AGCZX
--------------------------------------------

Details:
-------

Video
ID                               : 0
Format                           : MPEG-4 Visual
Format profile                   : AdvancedSimple@L5
Format settings, BVOP            : Yes
Format settings, QPel            : No
Format settings, GMC             : No warppoints
Format settings, Matrix          : Custom
Codec ID                         : XVID
Codec ID/Hint                    : XviD
Duration                         : 2h 14mn
Bit rate                         : 1 631 Kbps
Width                            : 1080 pixels
Height                           : 720 pixels
Display aspect ratio             : 2.35:1
Frame rate                       : 30 fps
Resolution                       : 1920*1040
Colorimetry                      : 4:2:0
Scan type                        : Progressive
Bits/(Pixel*Frame)               : 0.311
Stream size                      : 513 MiB (99%)
Writing library                  : XviD 58

Audio
ID                               : 1
Format                           : AC-3
Format/Info                      : Audio Coding 3
Codec ID                         : 2000
Duration                         : 2h 14mn
Bit rate mode                    : Constant
Bit rate                         : 384 Kbps
Channel(s)                       : 6 channels
Channel positions                : Front: L C R, Surround: L R, LFE
Sampling rate                    : 48.0 KHz
Stream size                      : 513 MiB (19%)
Alignment                        : Aligned on interleaves
Interleave, duration             : 64 ms (1.54 video frames)
Interleave, preload duration     : 192 ms
-----------------------------------------

Plot:
----

A cop, a housewife and a prostitute get entangled in a 
mystery that links their lives in unexpected ways. 
--------------------------------------------------------------------------------------Torrent downloaded from http://thepiratebay.se
Talaash (2012) - Poster.png 1.281 MB
Talaash (2012) DVDRip_XviD/Talaash (2012) DVDRip-XviD.rar 537.893 MB
Gathering some info...

Register and log in Isohunt and see no captcha anymore!

4000 symbols left
Hash 8D44DE3D5FA37BEF4F8E4097C16AD5B803B8D076